<svg xmlns="http://www.w3.org/2000/svg"><defs><font id="fontawesome-free" horiz-adv-x="640"><font-face font-family="Font Awesome 5 Free" units-per-em="512" ascent="448" descent="64" font-weight="900" font-style="Solid"/><glyph glyph-name="address-book" unicode="" horiz-adv-x="448" d="M436 288c6.627 0 12 5.373 12 12v40c0 6.627-5.373 12-12 12h-20v48c0 26.51-21.49 48-48 48H48c-26.51 0-48-21.49-48-48V-16c0-26.51 21.49-48 48-48h320c26.51 0 48 21.49 48 48v48h20c6.627 0 12 5.373 12 12v40c0 6.627-5.373 12-12 12h-20v64h20c6.627 0 12 5.373 12 12v40c0 6.627-5.373 12-12 12h-20v64zm-228 32c44.183 0 80-35.817 80-80s-35.817-80-80-80-80 35.817-80 80 35.817 80 80 80M336 88c0-13.255-10.745-24-24-24H104c-13.255 0-24 10.745-24 24v18.523c0 22.026 14.99 41.225 36.358 46.567l35.657 8.914c29.101-20.932 74.509-26.945 111.97 0l35.657-8.914C321.01 147.748 336 128.548 336 106.523z"/><glyph glyph-name="address-card" unicode="" horiz-adv-x="512" d="M464 384H48c-26.51 0-48-21.49-48-48V48C0 21.49 21.49 0 48 0h416c26.51 0 48 21.49 48 48v288c0 26.51-21.49 48-48 48m-288-80c38.66 0 70-31.34 70-70s-31.34-70-70-70-70 31.34-70 70 31.34 70 70 70m112-203c0-11.598-9.402-21-21-21H85c-11.598 0-21 9.402-21 21v16.207c0 19.272 13.116 36.072 31.813 40.746l31.2 7.8c25.464-18.316 65.195-23.577 97.974 0l31.2-7.8C274.884 153.279 288 136.48 288 117.207zm160 39c0-6.627-5.373-12-12-12H332c-6.627 0-12 5.373-12 12v8c0 6.627 5.373 12 12 12h104c6.627 0 12-5.373 12-12zm0 64c0-6.627-5.373-12-12-12H332c-6.627 0-12 5.373-12 12v8c0 6.627 5.373 12 12 12h104c6.627 0 12-5.373 12-12zm0 64c0-6.627-5.373-12-12-12H332c-6.627 0-12 5.373-12 12v8c0 6.627 5.373 12 12 12h104c6.627 0 12-5.373 12-12z"/><glyph glyph-name="adjust" unicode="" horiz-adv-x="512" d="M8 192C8 55.034 119.033-56 256-56S504 55.034 504 192 392.966 440 256 440 8 328.967 8 192M256 8v368c101.705 0 184-82.311 184-184C440 90.295 357.689 8 256 8"/><glyph glyph-name="align-center" unicode="" horiz-adv-x="448" d="M352 404v-40c0-8.837-7.163-16-16-16H112c-8.837 0-16 7.163-16 16v40c0 8.837 7.163 16 16 16h224c8.837 0 16-7.163 16-16M16 220h416c8.837 0 16 7.163 16 16v40c0 8.837-7.163 16-16 16H16c-8.837 0-16-7.163-16-16v-40c0-8.837 7.163-16 16-16m0-256h416c8.837 0 16 7.163 16 16v40c0 8.837-7.163 16-16 16H16C7.163 36 0 28.837 0 20v-40c0-8.837 7.163-16 16-16m320 200H112c-8.837 0-16-7.163-16-16v-40c0-8.837 7.163-16 16-16h224c8.837 0 16 7.163 16 16v40c0 8.837-7.163 16-16 16"/><glyph glyph-name="align-justify" unicode="" horiz-adv-x="448" d="M0 364v40c0 8.837 7.163 16 16 16h416c8.837 0 16-7.163 16-16v-40c0-8.837-7.163-16-16-16H16c-8.837 0-16 7.163-16 16m16-144h416c8.837 0 16 7.163 16 16v40c0 8.837-7.163 16-16 16H16c-8.837 0-16-7.163-16-16v-40c0-8.837 7.163-16 16-16m0-256h416c8.837 0 16 7.163 16 16v40c0 8.837-7.163 16-16 16H16C7.163 36 0 28.837 0 20v-40c0-8.837 7.163-16 16-16m0 128h416c8.837 0 16 7.163 16 16v40c0 8.837-7.163 16-16 16H16c-8.837 0-16-7.163-16-16v-40c0-8.837 7.163-16 16-16"/><glyph glyph-name="align-left" unicode="" horiz-adv-x="448" d="M288 404v-40c0-8.837-7.163-16-16-16H16c-8.837 0-16 7.163-16 16v40c0 8.837 7.163 16 16 16h256c8.837 0 16-7.163 16-16M0 276v-40c0-8.837 7.163-16 16-16h416c8.837 0 16 7.163 16 16v40c0 8.837-7.163 16-16 16H16c-8.837 0-16-7.163-16-16M16-36h416c8.837 0 16 7.163 16 16v40c0 8.837-7.163 16-16 16H16C7.163 36 0 28.837 0 20v-40c0-8.837 7.163-16 16-16m256 200H16c-8.837 0-16-7.163-16-16v-40c0-8.837 7.163-16 16-16h256c8.837 0 16 7.163 16 16v40c0 8.837-7.163 16-16 16"/><glyph glyph-name="align-right" unicode="" horiz-adv-x="448" d="M160 364v40c0 8.837 7.163 16 16 16h256c8.837 0 16-7.163 16-16v-40c0-8.837-7.163-16-16-16H176c-8.837 0-16 7.163-16 16M16 220h416c8.837 0 16 7.163 16 16v40c0 8.837-7.163 16-16 16H16c-8.837 0-16-7.163-16-16v-40c0-8.837 7.163-16 16-16m0-256h416c8.837 0 16 7.163 16 16v40c0 8.837-7.163 16-16 16H16C7.163 36 0 28.837 0 20v-40c0-8.837 7.163-16 16-16M176 92h256c8.837 0 16 7.163 16 16v40c0 8.837-7.163 16-16 16H176c-8.837 0-16-7.163-16-16v-40c0-8.837 7.163-16 16-16"/><glyph glyph-name="ambulance" unicode="" horiz-adv-x="640" d="M624 96h-16v108.1c0 12.7-5.1 24.9-14.1 33.9L494 337.9c-9 9-21.2 14.1-33.9 14.1H416v48c0 26.5-21.5 48-48 48H48c-26.5 0-48-21.5-48-48V80c0-26.5 21.5-48 48-48h16c0-53 43-96 96-96s96 43 96 96h128c0-53 43-96 96-96s96 43 96 96h48c8.8 0 16 7.2 16 16v32c0 8.8-7.2 16-16 16M160-16c-26.5 0-48 21.5-48 48s21.5 48 48 48 48-21.5 48-48-21.5-48-48-48m144 248c0-4.4-3.6-8-8-8h-56v-56c0-4.4-3.6-8-8-8h-48c-4.4 0-8 3.6-8 8v56h-56c-4.4 0-8 3.6-8 8v48c0 4.4 3.6 8 8 8h56v56c0 4.4 3.6 8 8 8h48c4.4 0 8-3.6 8-8v-56h56c4.4 0 8-3.6 8-8zM480-16c-26.5 0-48 21.5-48 48s21.5 48 48 48 48-21.5 48-48-21.5-48-48-48m80 208H416v112h44.1l99.9-99.9z"/><glyph glyph-name="american-sign-language-interpreting" unicode="" horiz-adv-x="640" d="M290.547 258.961c-20.295 10.149-44.147 11.199-64.739 3.89 42.606 0 71.208-20.475 85.578-50.576 8.576-17.899-5.148-38.071-23.617-38.071 18.429 0 32.211-20.136 23.617-38.071-14.725-30.846-46.123-50.854-80.298-50.854-.557 0-94.471 8.615-94.471 8.615L70.211 60.547c-9.384-4.693-19.815-.379-23.895 7.781L1.86 157.253c-4.167 8.615-1.111 18.897 6.946 23.621l58.072 33.069L108 288.139c6.39 57.245 34.731 109.767 79.743 146.726 11.391 9.448 28.341 7.781 37.51-3.613 9.446-11.394 7.78-28.067-3.612-37.516-12.503-10.559-23.618-22.509-32.509-35.57 21.672 14.729 46.679 24.732 74.186 28.067 14.725 1.945 28.063-8.336 29.73-23.065 1.945-14.728-8.336-28.067-23.062-29.734-16.116-1.945-31.12-7.503-44.178-15.284 26.114 5.713 58.712 3.138 88.079-11.115 13.336-6.669 18.893-22.509 12.224-35.848-6.389-13.06-22.504-18.617-35.564-12.226m-27.229-69.472c-6.112 12.505-18.338 20.286-32.231 20.286a35.46 35.46 0 0 1-35.565-35.57c0-21.428 17.808-35.57 35.565-35.57 13.893 0 26.119 7.781 32.231 20.286 4.446 9.449 13.614 15.006 23.339 15.284-9.725.277-18.893 5.835-23.339 15.284m374.821 37.237c4.168-8.615 1.111-18.897-6.946-23.621l-58.071-33.069L532 95.84c-6.39-57.245-34.731-109.767-79.743-146.726-10.932-9.112-27.799-8.144-37.51 3.613-9.446 11.394-7.78 28.067 3.613 37.516 12.503 10.559 23.617 22.509 32.508 35.57-21.672-14.729-46.679-24.732-74.186-28.067-10.021-2.506-27.552 5.643-29.73 23.065-1.945 14.728 8.336 28.067 23.062 29.734 16.116 1.946 31.12 7.503 44.178 15.284-26.114-5.713-58.712-3.138-88.079 11.115-13.336 6.669-18.893 22.509-12.224 35.848 6.389 13.061 22.505 18.619 35.565 12.227 20.295-10.149 44.147-11.199 64.739-3.89-42.606 0-71.208 20.475-85.578 50.576-8.576 17.899 5.148 38.071 23.617 38.071-18.429 0-32.211 20.136-23.617 38.071 14.033 29.396 44.039 50.887 81.966 50.854l92.803-8.615 66.406 33.347c9.408 4.704 19.828.354 23.894-7.781zm-229.227 18.618c-13.893 0-26.119-7.781-32.231-20.286-4.446-9.449-13.614-15.006-23.339-15.284 9.725-.278 18.893-5.836 23.339-15.284 6.112-12.505 18.338-20.286 32.231-20.286a35.46 35.46 0 0 1 35.565 35.57c0 21.429-17.808 35.57-35.565 35.57"/><glyph glyph-name="anchor" unicode="" horiz-adv-x="576" d="M12.971 96h32.394C67.172-6.735 181.944-64 288-64 394.229-64 508.853-6.62 530.635 96h32.394c10.691 0 16.045 12.926 8.485 20.485l-67.029 67.029c-4.686 4.686-12.284 4.686-16.971 0l-67.029-67.029c-7.56-7.56-2.206-20.485 8.485-20.485h35.146c-20.29-54.317-84.963-86.588-144.117-94.015V192h52c6.627 0 12 5.373 12 12v40c0 6.627-5.373 12-12 12h-52v5.47c37.281 13.178 63.995 48.725 64 90.518.006 52.24-42.394 95.274-94.629 96.002-53.647.749-97.37-42.515-97.37-95.99 0-41.798 26.716-77.35 64-90.53V256h-52c-6.627 0-12-5.373-12-12v-40c0-6.627 5.373-12 12-12h52V1.985C197.064 9.384 132.18 41.664 111.883 96h35.146c10.691 0 16.045 12.926 8.485 20.485l-67.029 67.029c-4.686 4.686-12.284 4.686-16.971 0L4.485 116.485C-3.074 108.926 2.28 96 12.971 96M288 384c17.645 0 32-14.355 32-32s-14.355-32-32-32-32 14.355-32 32 14.355 32 32 32"/><glyph glyph-name="angle-double-down" unicode="" horiz-adv-x="320" d="M143 191.7 7 327.7c-9.4 9.4-9.4 24.6 0 33.9l22.6 22.6c9.4 9.4 24.6 9.4 33.9 0l96.4-96.4 96.4 96.4c9.4 9.4 24.6 9.4 33.9 0l22.8-22.5c9.4-9.4 9.4-24.6 0-33.9l-136-136c-9.4-9.5-24.6-9.5-34-.1m34-192 136 136c9.4 9.4 9.4 24.6 0 33.9l-22.6 22.6c-9.4 9.4-24.6 9.4-33.9 0L160 95.9l-96.4 96.4c-9.4 9.4-24.6 9.4-33.9 0L7 169.7c-9.4-9.4-9.4-24.6 0-33.9L143-.2c9.4-9.5 24.6-9.5 34-.1"/><glyph glyph-name="angle-double-left" unicode="" horiz-adv-x="448" d="m223.7 209 136 136c9.4 9.4 24.6 9.4 33.9 0l22.6-22.6c9.4-9.4 9.4-24.6 0-33.9L319.9 192l96.4-96.4c9.4-9.4 9.4-24.6 0-33.9L393.7 39c-9.4-9.4-24.6-9.4-33.9 0l-136 136c-9.5 9.4-9.5 24.6-.1 34m-192-34 136-136c9.4-9.4 24.6-9.4 33.9 0l22.6 22.6c9.4 9.4 9.4 24.6 0 33.9L127.9 192l96.4 96.4c9.4 9.4 9.4 24.6 0 33.9L201.7 345c-9.4 9.4-24.6 9.4-33.9 0l-136-136c-9.5-9.4-9.5-24.6-.1-34"/><glyph glyph-name="angle-double-right" unicode="" horiz-adv-x="448" d="M224.3 175 88.3 39c-9.4-9.4-24.6-9.4-33.9 0L31.8 61.6c-9.4 9.4-9.4 24.6 0 33.9l96.4 96.4-96.4 96.4c-9.4 9.4-9.4 24.6 0 33.9L54.3 345c9.4 9.4 24.6 9.4 33.9 0l136-136c9.5-9.4 9.5-24.6.1-34m192 34-136 136c-9.4 9.4-24.6 9.4-33.9 0l-22.6-22.6c-9.4-9.4-9.4-24.6 0-33.9l96.4-96.4-96.4-96.4c-9.4-9.4-9.4-24.6 0-33.9l22.6-22.6c9.4-9.4 24.6-9.4 33.9 0l136 136c9.4 9.2 9.4 24.4 0 33.8"/><glyph glyph-name="angle-double-up" unicode="" horiz-adv-x="320" d="m177 192.3 136-136c9.4-9.4 9.4-24.6 0-33.9L290.4-.2c-9.4-9.4-24.6-9.4-33.9 0L160 96.1 63.6-.3C54.2-9.7 39-9.7 29.7-.3L7 22.3c-9.4 9.4-9.4 24.6 0 33.9l136 136c9.4 9.5 24.6 9.5 34 .1m-34 192L7 248.3c-9.4-9.4-9.4-24.6 0-33.9l22.6-22.6c9.4-9.4 24.6-9.4 33.9 0l96.4 96.4 96.4-96.4c9.4-9.4 24.6-9.4 33.9 0l22.6 22.6c9.4 9.4 9.4 24.6 0 33.9l-136 136c-9.2 9.4-24.4 9.4-33.8 0"/><glyph glyph-name="angle-down" unicode="" horiz-adv-x="320" d="M143 95.7 7 231.7c-9.4 9.4-9.4 24.6 0 33.9l22.6 22.6c9.4 9.4 24.6 9.4 33.9 0l96.4-96.4 96.4 96.4c9.4 9.4 24.6 9.4 33.9 0l22.6-22.6c9.4-9.4 9.4-24.6 0-33.9l-136-136c-9.2-9.4-24.4-9.4-33.8 0"/><glyph glyph-name="angle-left" unicode="" horiz-adv-x="256" d="m31.7 209 136 136c9.4 9.4 24.6 9.4 33.9 0l22.6-22.6c9.4-9.4 9.4-24.6 0-33.9L127.9 192l96.4-96.4c9.4-9.4 9.4-24.6 0-33.9L201.7 39c-9.4-9.4-24.6-9.4-33.9 0l-136 136c-9.5 9.4-9.5 24.6-.1 34"/><glyph glyph-name="angle-right" unicode="" horiz-adv-x="256" d="M224.3 175 88.3 39c-9.4-9.4-24.6-9.4-33.9 0L31.8 61.6c-9.4 9.4-9.4 24.6 0 33.9l96.4 96.4-96.4 96.4c-9.4 9.4-9.4 24.6 0 33.9L54.3 345c9.4 9.4 24.6 9.4 33.9 0l136-136c9.5-9.4 9.5-24.6.1-34"/><glyph glyph-name="angle-up" unicode="" horiz-adv-x="320" d="m177 288.3 136-136c9.4-9.4 9.4-24.6 0-33.9l-22.6-22.6c-9.4-9.4-24.6-9.4-33.9 0L160 192.1 63.6 95.7c-9.4-9.4-24.6-9.4-33.9 0L7 118.3c-9.4 9.4-9.4 24.6 0 33.9l136 136c9.4 9.5 24.6 9.5 34 .1"/><glyph glyph-name="archive" unicode="" horiz-adv-x="512" d="M488 320H24c-13.255 0-24 10.745-24 24v48c0 13.255 10.745 24 24 24h464c13.255 0 24-10.745 24-24v-48c0-13.255-10.745-24-24-24M480-8v272c0 13.255-10.745 24-24 24H56c-13.255 0-24-10.745-24-24V-8c0-13.255 10.745-24 24-24h400c13.255 0 24 10.745 24 24M308 192H204c-6.627 0-12 5.373-12 12v8c0 6.627 5.373 12 12 12h104c6.627 0 12-5.373 12-12v-8c0-6.627-5.373-12-12-12"/><glyph glyph-name="arrow-alt-circle-down" unicode="" horiz-adv-x="512" d="M504 192C504 55 393-56 256-56S8 55 8 192s111 248 248 248 248-111 248-248M212 308V192h-70.9c-10.7 0-16.1-13-8.5-20.5L247.5 57.2c4.7-4.7 12.2-4.7 16.9 0l114.9 114.3c7.6 7.6 2.2 20.5-8.5 20.5H300v116c0 6.6-5.4 12-12 12h-64c-6.6 0-12-5.4-12-12"/><glyph glyph-name="arrow-alt-circle-left" unicode="" horiz-adv-x="512" d="M256-56C119-56 8 55 8 192s111 248 248 248 248-111 248-248S393-56 256-56m116 292H256v70.9c0 10.7-13 16.1-20.5 8.5L121.2 200.5c-4.7-4.7-4.7-12.2 0-16.9L235.5 68.7c7.6-7.6 20.5-2.2 20.5 8.5V148h116c6.6 0 12 5.4 12 12v64c0 6.6-5.4 12-12 12"/><glyph glyph-name="arrow-alt-circle-right" unicode="" horiz-adv-x="512" d="M256 440c137 0 248-111 248-248S393-56 256-56 8 55 8 192s111 248 248 248M140 148h116V77.1c0-10.7 13-16.1 20.5-8.5l114.3 114.9c4.7 4.7 4.7 12.2 0 16.9l-114.3 115c-7.6 7.6-20.5 2.2-20.5-8.5V236H140c-6.6 0-12-5.4-12-12v-64c0-6.6 5.4-12 12-12"/><glyph glyph-name="arrow-alt-circle-up" unicode="" horiz-adv-x="512" d="M8 192c0 137 111 248 248 248s248-111 248-248S393-56 256-56 8 55 8 192M300 76v116h70.9c10.7 0 16.1 13 8.5 20.5L264.5 326.8c-4.7 4.7-12.2 4.7-16.9 0l-115-114.3c-7.6-7.6-2.2-20.5 8.5-20.5H212V76c0-6.6 5.4-12 12-12h64c6.6 0 12 5.4 12 12"/><glyph glyph-name="arrow-circle-down" unicode="" horiz-adv-x="512" d="M504 192C504 55 393-56 256-56S8 55 8 192s111 248 248 248 248-111 248-248m-143.6 28.9L288 145.4V328c0 13.3-10.7 24-24 24h-16c-13.3 0-24-10.7-24-24V145.4l-72.4 75.5c-9.3 9.7-24.8 9.9-34.3.4l-10.9-11c-9.4-9.4-9.4-24.6 0-33.9L239 43.7c9.4-9.4 24.6-9.4 33.9 0l132.7 132.7c9.4 9.4 9.4 24.6 0 33.9l-10.9 11c-9.5 9.5-25 9.3-34.3-.4"/><glyph glyph-name="arrow-circle-left" unicode="" horiz-adv-x="512" d="M256-56C119-56 8 55 8 192s111 248 248 248 248-111 248-248S393-56 256-56m28.9 143.6L209.4 160H392c13.3 0 24 10.7 24 24v16c0 13.3-10.7 24-24 24H209.4l75.5 72.4c9.7 9.3 9.9 24.8.4 34.3l-11 10.9c-9.4 9.4-24.6 9.4-33.9 0L107.7 209c-9.4-9.4-9.4-24.6 0-33.9L240.4 42.4c9.4-9.4 24.6-9.4 33.9 0l11 10.9c9.5 9.5 9.3 25-.4 34.3"/><glyph glyph-name="arrow-circle-right" unicode="" horiz-adv-x="512" d="M256 440c137 0 248-111 248-248S393-56 256-56 8 55 8 192s111 248 248 248m-28.9-143.6 75.5-72.4H120c-13.3 0-24-10.7-24-24v-16c0-13.3 10.7-24 24-24h182.6l-75.5-72.4c-9.7-9.3-9.9-24.8-.4-34.3l11-10.9c9.4-9.4 24.6-9.4 33.9 0L404.3 175c9.4 9.4 9.4 24.6 0 33.9L271.6 341.7c-9.4 9.4-24.6 9.4-33.9 0l-11-10.9c-9.5-9.6-9.3-25.1.4-34.4"/><glyph glyph-name="arrow-circle-up" unicode="" horiz-adv-x="512" d="M8 192c0 137 111 248 248 248s248-111 248-248S393-56 256-56 8 55 8 192m143.6-28.9 72.4 75.5V56c0-13.3 10.7-24 24-24h16c13.3 0 24 10.7 24 24v182.6l72.4-75.5c9.3-9.7 24.8-9.9 34.3-.4l10.9 11c9.4 9.4 9.4 24.6 0 33.9L273 340.3c-9.4 9.4-24.6 9.4-33.9 0L106.3 207.6c-9.4-9.4-9.4-24.6 0-33.9l10.9-11c9.6-9.5 25.1-9.3 34.4.4"/><glyph glyph-name="arrow-down" unicode="" horiz-adv-x="448" d="m413.1 225.5 22.2-22.2c9.4-9.4 9.4-24.6 0-33.9L241-25c-9.4-9.4-24.6-9.4-33.9 0L12.7 169.4c-9.4 9.4-9.4 24.6 0 33.9l22.2 22.2c9.5 9.5 25 9.3 34.3-.4L184 104.6V392c0 13.3 10.7 24 24 24h32c13.3 0 24-10.7 24-24V104.6l114.8 120.5c9.3 9.8 24.8 10 34.3.4"/><glyph glyph-name="arrow-left" unicode="" horiz-adv-x="448" d="m257.5 2.9-22.2-22.2c-9.4-9.4-24.6-9.4-33.9 0L7 175c-9.4 9.4-9.4 24.6 0 33.9l194.4 194.4c9.4 9.4 24.6 9.4 33.9 0l22.2-22.2c9.5-9.5 9.3-25-.4-34.3L136.6 232H424c13.3 0 24-10.7 24-24v-32c0-13.3-10.7-24-24-24H136.6L257.1 37.2c9.8-9.3 10-24.8.4-34.3"/><glyph glyph-name="arrow-right" unicode="" horiz-adv-x="448" d="m190.5 381.1 22.2 22.2c9.4 9.4 24.6 9.4 33.9 0L441 209c9.4-9.4 9.4-24.6 0-33.9L246.6-19.3c-9.4-9.4-24.6-9.4-33.9 0L190.5 2.9c-9.5 9.5-9.3 25 .4 34.3L311.4 152H24c-13.3 0-24 10.7-24 24v32c0 13.3 10.7 24 24 24h287.4L190.9 346.8c-9.8 9.3-10 24.8-.4 34.3"/><glyph glyph-name="arrow-up" unicode="" horiz-adv-x="448" d="m34.9 158.5-22.2 22.2c-9.4 9.4-9.4 24.6 0 33.9L207 409c9.4 9.4 24.6 9.4 33.9 0l194.3-194.3c9.4-9.4 9.4-24.6 0-33.9L413 158.6c-9.5-9.5-25-9.3-34.3.4L264 279.4V-8c0-13.3-10.7-24-24-24h-32c-13.3 0-24 10.7-24 24v287.4L69.2 158.9c-9.3-9.8-24.8-10-34.3-.4"/><glyph glyph-name="arrows-alt-h" unicode="" horiz-adv-x="512" d="M377.941 278.059V232H134.059v46.059c0 21.382-25.851 32.09-40.971 16.971L7.029 208.971c-9.373-9.373-9.373-24.568 0-33.941l86.059-86.059c15.119-15.119 40.971-4.411 40.971 16.971V152h243.882v-46.059c0-21.382 25.851-32.09 40.971-16.971l86.059 86.059c9.373 9.373 9.373 24.568 0 33.941l-86.059 86.059c-15.119 15.12-40.971 4.412-40.971-16.97"/><glyph glyph-name="arrows-alt-v" unicode="" horiz-adv-x="256" d="M214.059 70.059H168v243.882h46.059c21.382 0 32.09 25.851 16.971 40.971l-86.059 86.059c-9.373 9.373-24.568 9.373-33.941 0l-86.059-86.059c-15.119-15.119-4.411-40.971 16.971-40.971H88V70.059H41.941c-21.382 0-32.09-25.851-16.971-40.971l86.059-86.059c9.373-9.373 24.568-9.373 33.941 0l86.059 86.059c15.12 15.119 4.412 40.971-16.97 40.971"/><glyph glyph-name="arrows-alt" unicode="" horiz-adv-x="512" d="m352.201 22.225-79.196-79.196c-9.373-9.373-24.568-9.373-33.941 0l-79.196 79.196c-15.119 15.119-4.411 40.971 16.971 40.97h51.162L228 164H127.196v-51.162c0-21.382-25.851-32.09-40.971-16.971L7.029 175.063c-9.373 9.373-9.373 24.569 0 33.941L86.225 288.2c15.119 15.119 40.971 4.411 40.971-16.971V220H228v100.804h-51.23c-21.382 0-32.09 25.851-16.971 40.971l79.196 79.196c9.373 9.373 24.568 9.373 33.941 0l79.196-79.196c15.119-15.119 4.411-40.971-16.971-40.971h-51.162V220h100.804v51.162c0 21.382 25.851 32.09 40.97 16.971l79.196-79.196c9.373-9.373 9.373-24.569 0-33.941L425.773 95.8c-15.119-15.119-40.971-4.411-40.97 16.971V164H284V63.196h51.23c21.382 0 32.09-25.851 16.971-40.971"/><glyph glyph-name="assistive-listening-systems" unicode="" horiz-adv-x="512" d="M216 188c0-15.464-12.536-28-28-28s-28 12.536-28 28c0 44.112 35.888 80 80 80s80-35.888 80-80c0-15.464-12.536-28-28-28s-28 12.536-28 28c0 13.234-10.767 24-24 24s-24-10.766-24-24m24 176c-97.047 0-176-78.953-176-176 0-15.464 12.536-28 28-28s28 12.536 28 28c0 66.168 53.832 120 120 120s120-53.832 120-120c0-75.164-71.009-70.311-71.997-143.622L288 44c0-28.673-23.327-52-52-52-15.464 0-28-12.536-28-28s12.536-28 28-28c59.475 0 107.876 48.328 108 107.774.595 34.428 72 48.24 72 144.226 0 97.047-78.953 176-176 176m-80-236c-17.673 0-32-14.327-32-32s14.327-32 32-32 32 14.327 32 32-14.327 32-32 32M32 0C14.327 0 0-14.327 0-32s14.327-32 32-32 32 14.327 32 32S49.673 0 32 0m480 187.993c0 1.518-.012 3.025-.045 4.531-1.879 114.951-75.798 217.006-183.961 253.965-14.633 4.998-30.549-2.809-35.55-17.442s2.81-30.549 17.442-35.55c85.906-29.354 144.61-110.513 146.077-201.953l.003-.188c.026-1.118.033-2.236.033-3.363 0-15.464 12.536-28 28-28s28.001 12.536 28.001 28M152.971 8.971l-80 80L39.03 55.03l80-80z"/><glyph glyph-name="asterisk" unicode="" horiz-adv-x="512" d="M478.21 113.907 336 192l142.21 78.093c11.795 6.477 15.961 21.384 9.232 33.037l-19.48 33.741c-6.728 11.653-21.72 15.499-33.227 8.523L296 261.282l3.475 162.204C299.763 436.939 288.937 448 275.48 448h-38.96c-13.456 0-24.283-11.061-23.994-24.514L216 261.282 77.265 345.393c-11.506 6.976-26.499 3.13-33.227-8.523l-19.48-33.741c-6.728-11.653-2.562-26.56 9.233-33.037L176 192 33.79 113.907c-11.795-6.477-15.961-21.384-9.232-33.037l19.48-33.741c6.728-11.653 21.721-15.499 33.227-8.523L216 122.718l-3.475-162.204C212.237-52.939 223.064-64 236.52-64h38.961c13.456 0 24.283 11.061 23.995 24.514L296 122.718l138.735-84.111c11.506-6.976 26.499-3.13 33.227 8.523l19.48 33.741c6.728 11.653 2.563 26.559-9.232 33.036"/><glyph glyph-name="at" unicode="" horiz-adv-x="512" d="M256 440C118.941 440 8 329.081 8 192 8 54.941 118.919-56 256-56c48.154 0 95.342 14.14 135.408 40.223 12.005 7.815 14.625 24.288 5.552 35.372l-10.177 12.433c-7.671 9.371-21.179 11.667-31.373 5.129C325.92 18.243 291.314 8 256 8 154.542 8 72 90.542 72 192s82.542 184 184 184c100.139 0 184-57.619 184-160 0-38.786-21.093-79.742-58.17-83.693-17.349.454-16.91 12.857-13.476 30.024l23.433 121.11C394.653 298.25 383.308 312 368.225 312h-44.981a13.52 13.52 0 0 1-13.432-11.993l-.01-.092c-14.697 17.901-40.448 21.775-59.971 21.775-74.58 0-137.831-62.234-137.831-151.46 0-65.303 36.785-105.87 96-105.87 26.984 0 57.369 15.637 74.991 38.333 9.522-34.104 40.613-34.103 70.71-34.103C462.609 68.59 504 140.202 504 216c0 136.347-109.977 224-248 224m-21.68-304.43c-22.249 0-36.07 15.623-36.07 40.771 0 44.993 30.779 72.729 58.63 72.729 22.292 0 35.601-15.241 35.601-40.77 0-45.061-33.875-72.73-58.161-72.73"/><glyph glyph-name="audio-description" unicode="" horiz-adv-x="512" d="m162.925 209.291 8.822-30.655h-25.606l9.041 30.652c1.277 4.421 2.651 9.994 3.872 15.245 1.22-5.251 2.594-10.823 3.871-15.242m166.474 32.099h-14.523v-98.781h14.523c29.776 0 46.175 17.678 46.175 49.776 0 32.239-17.49 49.005-46.175 49.005M512 336V48c0-26.51-21.49-48-48-48H48C21.49 0 0 21.49 0 48v288c0 26.51 21.49 48 48 48h416c26.51 0 48-21.49 48-48M245.459 111.861l-57.097 168A12 12 0 0 1 177 288h-35.894a12 12 0 0 1-11.362-8.139l-57.097-168C70.003 104.078 75.789 96 84.009 96h29.133a12 12 0 0 1 11.535 8.693l8.574 29.906h51.367l8.793-29.977A12 12 0 0 1 204.926 96h29.172c8.22 0 14.006 8.078 11.361 15.861m184.701 80.525c0 58.977-37.919 95.614-98.96 95.614h-57.366c-6.627 0-12-5.373-12-12V108c0-6.627 5.373-12 12-12H331.2c61.041 0 98.96 36.933 98.96 96.386"/><glyph glyph-name="backward" unicode="" horiz-adv-x="512" d="m11.5 167.4 192-160C224.1-9.8 256 4.6 256 32v320c0 27.4-31.9 41.8-52.5 24.6l-192-160c-15.3-12.8-15.3-36.4 0-49.2m256 0 192-160C480.1-9.8 512 4.6 512 32v320c0 27.4-31.9 41.8-52.5 24.6l-192-160c-15.3-12.8-15.3-36.4 0-49.2"/><glyph glyph-name="balance-scale" unicode="" horiz-adv-x="640" d="M352 0h168c13.255 0 24-10.745 24-24v-16c0-13.255-10.745-24-24-24H120c-13.255 0-24 10.745-24 24v16c0 13.255 10.745 24 24 24h168v294.676c-23.531 10.284-41.164 31.546-46.397 57.324H120c-13.255 0-24 10.745-24 24v16c0 13.255 10.745 24 24 24h135.999c14.595 19.43 37.829 32 64.001 32s49.406-12.57 64.001-32H520c13.255 0 24-10.745 24-24v-16c0-13.255-10.745-24-24-24H398.397c-5.233-25.778-22.866-47.04-46.397-57.324zm287.981 112c.001 16.182 1.342 8.726-85.048 181.506-17.647 35.294-68.186 35.358-85.865 0C381.94 119.25 384.019 127.669 384.019 112H384c0-44.183 57.308-80 128-80s128 35.817 128 80zM512 272l72-144H440zM255.981 112c.001 16.182 1.342 8.726-85.048 181.506-17.647 35.294-68.186 35.358-85.865 0C-2.06 119.25.019 127.669.019 112H0c0-44.183 57.308-80 128-80s128 35.817 128 80zM128 272l72-144H56z"/><glyph glyph-name="ban" unicode="" horiz-adv-x="512" d="M256 440C119.034 440 8 328.967 8 192S119.034-56 256-56 504 55.034 504 192 392.967 440 256 440m130.108-117.892c65.448-65.448 70-165.481 20.677-235.637L150.47 342.784c70.204 49.356 170.226 44.735 235.638-20.676M125.892 61.892c-65.448 65.448-70 165.481-20.677 235.637L361.53 41.216C291.327-8.14 191.304-3.52 125.892 61.892"/><glyph glyph-name="band-aid" unicode="" horiz-adv-x="640" d="M0 288V96c0-35.3 28.7-64 64-64h96v320H64c-35.3 0-64-28.7-64-64m576 64h-96V32h96c35.3 0 64 28.7 64 64v192c0 35.3-28.7 64-64 64M192 32h256v320H192zm176 232c13.3 0 24-10.7 24-24s-10.7-24-24-24-24 10.7-24 24 10.7 24 24 24m0-96c13.3 0 24-10.7 24-24s-10.7-24-24-24-24 10.7-24 24 10.7 24 24 24m-96 96c13.3 0 24-10.7 24-24s-10.7-24-24-24-24 10.7-24 24 10.7 24 24 24m0-96c13.3 0 24-10.7 24-24s-10.7-24-24-24-24 10.7-24 24 10.7 24 24 24"/><glyph glyph-name="barcode" unicode="" horiz-adv-x="512" d="M0 0v384h18V0zm26.857.273V384H36V.273zM54 .273V384h8.857V.273zm44.857 0V384h8.857V.273zm36 0V384h17.714V.273zm44.857 0V384h8.857V.273zm18 0V384h8.857V.273zm18 0V384h8.857V.273zm35.715 0V384h18V.273zm44.857 0V384h18V.273zm35.999 0V384h18.001V.273zm36.001 0V384h18.001V.273zm26.857 0V384h18V.273zm45.143 0V384h26.857V.273zm35.714 0V384h9.143V.273zM494 0v384h18V0z"/><glyph glyph-name="bars" unicode="" horiz-adv-x="448" d="M16 316h416c8.837 0 16 7.163 16 16v40c0 8.837-7.163 16-16 16H16c-8.837 0-16-7.163-16-16v-40c0-8.837 7.163-16 16-16m0-160h416c8.837 0 16 7.163 16 16v40c0 8.837-7.163 16-16 16H16c-8.837 0-16-7.163-16-16v-40c0-8.837 7.163-16 16-16M16-4h416c8.837 0 16 7.163 16 16v40c0 8.837-7.163 16-16 16H16C7.163 68 0 60.837 0 52V12C0 3.163 7.163-4 16-4"/><glyph glyph-name="baseball-ball" unicode="" horiz-adv-x="496" d="M368.5 84.1 397.3 98c11.1-22.9 26-43.2 44.1-60.9 34 42.5 54.5 96.3 54.5 154.9 0 58.5-20.4 112.2-54.2 154.6-17.8-17.3-32.6-37.1-43.6-59.5l-28.7 14.1c12.8 26 30 49 50.8 69C375.6 413.3 315 440 248 440c-66.9 0-127.5-26.6-172.1-69.7 20.7-19.9 37.9-42.9 50.7-68.8l-28.7-14.1c-11 22.3-25.7 42.1-43.5 59.4C20.4 304.3 0 250.6 0 192S20.4 79.7 54.4 37.3c18.2 17.7 33.2 38 44.3 61l28.8-13.9C114.6 57.7 97.2 34.1 76 13.7 120.5-29.4 181.1-56 248-56c66.8 0 127.3 26.5 171.9 69.5-21.1 20.4-38.5 43.9-51.4 70.6m-228.3 32-30.5 9.8c14.9 46.4 12.7 93.8-.6 134l30.4 10c15-45.6 18-99.9.7-153.8m216.3 153.4 30.4-10c-13.2-40.1-15.5-87.5-.6-134l-30.5-9.8c-17.3 54-14.3 108.3.7 153.8"/><glyph glyph-name="basketball-ball" unicode="" horiz-adv-x="496" d="M212.3 437.7c-43.8-6.3-86.2-24.1-122.2-53.8l77.4-77.4c27.8 35.8 43.3 81.2 44.8 131.2M248 226l157.9 157.9c-42.4 35-93.6 53.5-145.5 56.1-1.2-63.9-21.5-122.3-58.7-167.7zM56.1 349.9c-29.7-36-47.5-78.4-53.8-122.2 50 1.5 95.5 17 131.2 44.8zm272.2-204.2c45.3 37.1 103.7 57.4 167.7 58.7-2.6 51.9-21.1 103.1-56.1 145.5L282 192zM248 158 90.1.1c42.4-34.9 93.6-53.5 145.5-56.1 1.3 64 21.6 122.4 58.7 167.7zM439.9 34.1c29.7 36 47.5 78.4 53.8 122.2-50.1-1.6-95.5-17.1-131.2-44.8zM167.7 238.3C122.3 201.1 63.9 180.7 0 179.6 2.6 127.7 21.1 76.5 56.1 34.1L214 192zm116-292c43.8 6.3 86.2 24.1 122.2 53.8l-77.4 77.4c-27.7-35.7-43.2-81.2-44.8-131.2"/><glyph glyph-name="bath" unicode="" horiz-adv-x="512" d="M488 192H80v144c0 17.645 14.355 32 32 32 11.351 0 21.332-5.945 27.015-14.88-16.492-25.207-14.687-59.576 6.838-83.035-4.176-4.713-4.021-11.916.491-16.428l11.314-11.314c4.686-4.686 12.284-4.686 16.971 0l95.03 95.029c4.686 4.686 4.686 12.284 0 16.971l-11.314 11.314c-4.512 4.512-11.715 4.666-16.428.491-17.949 16.469-42.294 21.429-64.178 15.365C163.281 402.333 139.212 416 112 416c-44.112 0-80-35.888-80-80V192h-8c-13.255 0-24-10.745-24-24v-16c0-13.255 10.745-24 24-24h8V96c0-28.43 12.362-53.969 32-71.547V-8c0-13.255 10.745-24 24-24h16c13.255 0 24 10.745 24 24v8h256v-8c0-13.255 10.745-24 24-24h16c13.255 0 24 10.745 24 24v32.453C467.638 42.031 480 67.57 480 96v32h8c13.255 0 24 10.745 24 24v16c0 13.255-10.745 24-24 24"/><glyph glyph-name="battery-empty" unicode="" horiz-adv-x="640" d="M544 288v-64h32v-64h-32V96H64v192zm16 64H48c-26.51 0-48-21.49-48-48V80c0-26.51 21.49-48 48-48h512c26.51 0 48 21.49 48 48v16h8c13.255 0 24 10.745 24 24v144c0 13.255-10.745 24-24 24h-8v16c0 26.51-21.49 48-48 48"/><glyph glyph-name="battery-full" unicode="" horiz-adv-x="640" d="M544 288v-64h32v-64h-32V96H64v192zm16 64H48c-26.51 0-48-21.49-48-48V80c0-26.51 21.49-48 48-48h512c26.51 0 48 21.49 48 48v16h8c13.255 0 24 10.745 24 24v144c0 13.255-10.745 24-24 24h-8v16c0 26.51-21.49 48-48 48m-48-96H96V128h416z"/><glyph glyph-name="battery-half" unicode="" horiz-adv-x="640" d="M544 288v-64h32v-64h-32V96H64v192zm16 64H48c-26.51 0-48-21.49-48-48V80c0-26.51 21.49-48 48-48h512c26.51 0 48 21.49 48 48v16h8c13.255 0 24 10.745 24 24v144c0 13.255-10.745 24-24 24h-8v16c0 26.51-21.49 48-48 48m-240-96H96V128h224z"/><glyph glyph-name="battery-quarter" unicode="" horiz-adv-x="640" d="M544 288v-64h32v-64h-32V96H64v192zm16 64H48c-26.51 0-48-21.49-48-48V80c0-26.51 21.49-48 48-48h512c26.51 0 48 21.49 48 48v16h8c13.255 0 24 10.745 24 24v144c0 13.255-10.745 24-24 24h-8v16c0 26.51-21.49 48-48 48m-336-96H96V128h128z"/><glyph glyph-name="battery-three-quarters" unicode="" horiz-adv-x="640" d="M544 288v-64h32v-64h-32V96H64v192zm16 64H48c-26.51 0-48-21.49-48-48V80c0-26.51 21.49-48 48-48h512c26.51 0 48 21.49 48 48v16h8c13.255 0 24 10.745 24 24v144c0 13.255-10.745 24-24 24h-8v16c0 26.51-21.49 48-48 48m-144-96H96V128h320z"/><glyph glyph-name="bed" unicode="" horiz-adv-x="576" d="M552 160c13.255 0 24-10.745 24-24V0h-96v64H96V0H0v360c0 13.255 10.745 24 24 24h48c13.255 0 24-10.745 24-24V160zM192 352c-44.183 0-80-35.817-80-80s35.817-80 80-80 80 35.817 80 80-35.817 80-80 80m384-128c0 53.019-42.981 96-96 96H312c-13.255 0-24-10.745-24-24V192h288z"/><glyph glyph-name="beer" unicode="" horiz-adv-x="448" d="M368 352h-48v40c0 13.255-10.745 24-24 24H24c-13.255 0-24-10.745-24-24V-8c0-13.255 10.745-24 24-24h272c13.255 0 24 10.745 24 24v42.11l80.606 35.977C429.396 82.937 448 111.612 448 143.14V272c0 44.112-35.888 80-80 80m16-208.86a16.02 16.02 0 0 0-9.479-14.611L320 104.195V288h48c8.822 0 16-7.178 16-16zM208 64c-8.836 0-16 7.164-16 16v224c0 8.836 7.164 16 16 16s16-7.164 16-16V80c0-8.836-7.164-16-16-16m-96 0c-8.836 0-16 7.164-16 16v224c0 8.836 7.164 16 16 16s16-7.164 16-16V80c0-8.836-7.164-16-16-16"/><glyph glyph-name="bell-slash" unicode="" horiz-adv-x="576" d="M78.107 81.941C47.958 51.792 69.325 0 112.048 0H224c0-35.346 28.654-64 64-64s64 28.654 64 64h32.685L127.848 226.621c-2.198-97.078-28.439-123.378-49.741-144.68M264 0c0-13.234 10.766-24 24-24a8 8 0 0 0 0-16c-22.056 0-40 17.944-40 40zm305.896-43.733-10.762-12.086c-8.915-10.012-24.333-10.967-34.437-2.133L8.256 393.607c-10.104 8.835-11.067 24.113-2.152 34.126l10.761 12.086c8.916 10.012 24.334 10.967 34.438 2.132l113.81-99.512c24.017 28.778 57.946 48.996 96.55 55.39A31.85 31.85 0 0 0 256 416c0 17.673 14.327 32 32 32s32-14.327 32-32c0-6.75-2.095-13.008-5.663-18.17C390.169 385.269 448 319.394 448 240c0-108.118 27.634-135.809 49.884-158.059 12.149-12.149 15.923-27.776 13.33-42.121l56.53-49.427c10.104-8.835 11.067-24.113 2.152-34.126"/><glyph glyph-name="bell" unicode="" horiz-adv-x="448" d="M433.884 81.941C411.634 104.191 384 131.882 384 240c0 79.394-57.831 145.269-133.663 157.83A31.85 31.85 0 0 1 256 416c0 17.673-14.327 32-32 32s-32-14.327-32-32c0-6.75 2.095-13.008 5.663-18.17C121.831 385.269 64 319.394 64 240c0-108.118-27.643-135.809-49.893-158.059C-16.042 51.792 5.325 0 48.048 0H160c0-35.346 28.654-64 64-64s64 28.654 64 64h111.943c42.638 0 64.151 51.731 33.941 81.941M224-24a8 8 0 0 0 0-16c-22.056 0-40 17.944-40 40h16c0-13.234 10.766-24 24-24"/><glyph glyph-name="bicycle" unicode="" horiz-adv-x="640" d="M512.509 255.999c-16.373.064-32.03-2.955-46.436-8.495l-77.68 125.153A24 24 0 0 1 368.001 384h-64c-8.837 0-16-7.163-16-16v-16c0-8.837 7.163-16 16-16h50.649l14.896-24H256.002v16c0 8.837-7.163 16-16 16h-87.459c-13.441 0-24.777-10.999-24.536-24.437.232-13.044 10.876-23.563 23.995-23.563h48.726l-29.417-47.52c-13.433 4.83-27.904 7.483-42.992 7.52C58.094 256.17.412 198.988.002 128.764-.413 57.721 57.055 0 128.002 0c59.642 0 109.758 40.793 123.967 96h52.033a24 24 0 0 1 20.406 11.367L410.37 246.23l14.938-24.067c-25.455-23.448-41.385-57.081-41.307-94.437C384.146 58.893 441.9.675 510.73.007c70.606-.685 128.181 55.803 129.255 125.996 1.086 70.941-56.526 129.72-127.476 129.996M186.75 182.228c9.727-10.529 16.673-23.661 19.642-38.228h-43.306zM128.002 48c-44.112 0-80 35.888-80 80s35.888 80 80 80c5.869 0 11.586-.653 17.099-1.859l-45.505-73.509C89.715 116.673 101.213 96 120.002 96h81.3c-12.37-28.225-40.562-48-73.3-48m162.63 96h-35.624c-3.96 31.756-19.556 59.894-42.383 80.026L237.371 264h127.547zm217.057-95.886c-41.036 2.165-74.049 35.692-75.627 76.755-.812 21.121 6.633 40.518 19.335 55.263l44.433-71.586c4.66-7.508 14.524-9.816 22.032-5.156l13.594 8.437c7.508 4.66 9.817 14.524 5.156 22.032l-44.468 71.643a80 80 0 0 0 19.858 2.497c44.112 0 80-35.888 80-80-.001-45.54-38.252-82.316-84.313-79.885"/><glyph glyph-name="binoculars" unicode="" horiz-adv-x="512" d="M192 344H96v48c0 13.255 10.745 24 24 24h48c13.255 0 24-10.745 24-24zm224 48c0 13.255-10.745 24-24 24h-48c-13.255 0-24-10.745-24-24v-48h96zM0-8c0-13.255 10.745-24 24-24h120c13.255 0 24 10.745 24 24V8H0zm88 328c-13.255 0-24-10.745-24-24C64 192 0 176 0 32h168v104c0 13.255 10.745 24 24 24v160zM344-8c0-13.255 10.745-24 24-24h120c13.255 0 24 10.745 24 24V8H344zM216 320V160h80v160zM344 32h168c0 144-64 160-64 264 0 13.255-10.745 24-24 24H320V160c13.255 0 24-10.745 24-24z"/><glyph glyph-name="birthday-cake" unicode="" horiz-adv-x="448" d="M448 64c-28.02 0-31.26 32-74.5 32-43.43 0-46.825-32-74.75-32-27.695 0-31.454 32-74.75 32-42.842 0-47.218-32-74.5-32-28.148 0-31.202 32-74.75 32C31.203 96 28.097 64 0 64v80c0 26.5 21.5 48 48 48h16v144h64V192h64v144h64V192h64v144h64V192h16c26.5 0 48-21.5 48-48zm0-128H0v96c43.356 0 46.767 32 74.75 32 27.951 0 31.253-32 74.75-32 42.843 0 47.217 32 74.5 32 28.148 0 31.201-32 74.75-32 43.357 0 46.767 32 74.75 32 27.488 0 31.252-32 74.5-32zM96 352c-17.75 0-32 14.25-32 32 0 31 32 23 32 64 12 0 32-29.5 32-56s-14.25-40-32-40m128 0c-17.75 0-32 14.25-32 32 0 31 32 23 32 64 12 0 32-29.5 32-56s-14.25-40-32-40m128 0c-17.75 0-32 14.25-32 32 0 31 32 23 32 64 12 0 32-29.5 32-56s-14.25-40-32-40"/><glyph glyph-name="blind" unicode="" horiz-adv-x="384" d="M380.15-62.837a8 8 0 0 0-10.989 2.687l-125.33 206.427a31.9 31.9 0 0 1 12.958 9.485L382.837-51.846a8 8 0 0 0-2.687-10.991M142.803 133.662l-32.54-89.485 36.12-88.285c6.693-16.36 25.377-24.192 41.733-17.501 16.357 6.692 24.193 25.376 17.501 41.734zM96 360c24.301 0 44 19.699 44 44s-19.699 44-44 44-44-19.699-44-44 19.699-44 44-44m154.837-169.128-120 152c-4.733 5.995-11.75 9.108-18.837 9.112V352H80v-.026c-7.146-.003-14.217-3.161-18.944-9.24L0 264.234V168.54c0-13.455 11.011-24.791 24.464-24.536C37.505 144.252 48 154.9 48 168v79.766l16 20.571V127.639L9.927-21.055c-6.04-16.609 2.528-34.969 19.138-41.009 16.602-6.039 34.968 2.524 41.009 19.138L136 138.362v107.197l-31.406 39.816a4 4 0 1 0 6.269 4.971l102.3-129.217c9.145-11.584 24.368-11.339 33.708-3.965 10.41 8.216 12.159 23.334 3.966 33.708"/><glyph glyph-name="bold" unicode="" horiz-adv-x="384" d="M304.793 204.109c33.639 18.537 53.657 54.16 53.657 95.693 0 48.236-26.25 87.626-68.626 104.179C265.138 413.99 240.849 416 209.661 416H24c-8.837 0-16-7.163-16-16v-33.049c0-8.837 7.163-16 16-16h33.113V32.421H24c-8.837 0-16-7.163-16-16V-16c0-8.837 7.163-16 16-16h195.69c24.203 0 44.834 1.289 66.866 7.584C337.52-9.193 376 37.353 376 97.986c0 52.168-26.573 91.684-71.207 106.123M142.217 347.191h67.444c16.294 0 27.536-2.019 37.525-6.717 15.828-8.479 24.906-26.502 24.906-49.446 0-35.029-20.32-56.79-53.029-56.79h-76.846zM254.859 41.716c-10.14-4.056-22.677-4.907-31.409-4.907h-81.233v129.248h84.367c39.645 0 63.057-25.38 63.057-63.057.001-28.425-13.66-52.483-34.782-61.284"/><glyph glyph-name="bolt" unicode="" horiz-adv-x="320" d="M295.973 288H180.572l34.618 129.816C219.25 433.044 207.756 448 192 448H56c-12.029 0-22.2-8.905-23.789-20.828l-31.996-240C-1.704 172.783 9.504 160 24.004 160h118.701L96.646-34.466C93.05-49.649 104.659-64 119.992-64c8.35 0 16.376 4.374 20.778 11.978l175.973 303.997c9.244 15.967-2.288 36.025-20.77 36.025"/><glyph glyph-name="bomb" unicode="" horiz-adv-x="512" d="m440.5 359.5-52-52L415 281c9.4-9.4 9.4-24.6 0-33.9l-17.4-17.4c11.8-26.1 18.4-55.1 18.4-85.6 0-114.9-93.1-208-208-208S0 29.1 0 144s93.1 208 208 208c30.5 0 59.5-6.6 85.6-18.4L311 351c9.4 9.4 24.6 9.4 33.9 0l26.5-26.5 52 52zM500 388h-24c-6.6 0-12-5.4-12-12s5.4-12 12-12h24c6.6 0 12 5.4 12 12s-5.4 12-12 12m-60 60c-6.6 0-12-5.4-12-12v-24c0-6.6 5.4-12 12-12s12 5.4 12 12v24c0 6.6-5.4 12-12 12m33.9-55 17 17c4.7 4.7 4.7 12.3 0 17s-12.3 4.7-17 0l-17-17c-4.7-4.7-4.7-12.3 0-17 4.8-4.7 12.4-4.7 17 0m-67.8 0c4.7-4.7 12.3-4.7 17 0s4.7 12.3 0 17l-17 17c-4.7 4.7-12.3 4.7-17 0s-4.7-12.3 0-17zm67.8-34c-4.7 4.7-12.3 4.7-17 0s-4.7-12.3 0-17l17-17c4.7-4.7 12.3-4.7 17 0s4.7 12.3 0 17zM112 176c0 35.3 28.7 64 64 64 8.8 0 16 7.2 16 16s-7.2 16-16 16c-52.9 0-96-43.1-96-96 0-8.8 7.2-16 16-16s16 7.2 16 16"/><glyph glyph-name="book" unicode="" horiz-adv-x="448" d="M448 88v336c0 13.3-10.7 24-24 24H96c-53 0-96-43-96-96V32c0-53 43-96 96-96h328c13.3 0 24 10.7 24 24v16c0 7.5-3.5 14.3-8.9 18.7-4.2 15.4-4.2 59.3 0 74.7 5.4 4.3 8.9 11.1 8.9 18.6M128 314c0 3.3 2.7 6 6 6h212c3.3 0 6-2.7 6-6v-20c0-3.3-2.7-6-6-6H134c-3.3 0-6 2.7-6 6zm0-64c0 3.3 2.7 6 6 6h212c3.3 0 6-2.7 6-6v-20c0-3.3-2.7-6-6-6H134c-3.3 0-6 2.7-6 6zM381.4 0H96C78.3 0 64 14.3 64 32c0 17.6 14.4 32 32 32h285.4c-1.9-17.1-1.9-46.9 0-64"/><glyph glyph-name="bookmark" unicode="" horiz-adv-x="384" d="M0-64v464c0 26.51 21.49 48 48 48h288c26.51 0 48-21.49 48-48V-64L192 48z"/><glyph glyph-name="bowling-ball" unicode="" horiz-adv-x="496" d="M248 440C111 440 0 329 0 192S111-56 248-56 496 55 496 192 385 440 248 440M120 256c-17.7 0-32 14.3-32 32s14.3 32 32 32 32-14.3 32-32-14.3-32-32-32m64 96c0 17.7 14.3 32 32 32s32-14.3 32-32-14.3-32-32-32-32 14.3-32 32m48-144c-17.7 0-32 14.3-32 32s14.3 32 32 32 32-14.3 32-32-14.3-32-32-32"/><glyph glyph-name="box" unicode="" horiz-adv-x="512" d="m509.5 263.4-50.6 151.8c-6.5 19.6-24.8 32.8-45.5 32.8H272V256h238.7c-.4 2.5-.4 5-1.2 7.4M240 448H98.6c-20.7 0-39-13.2-45.5-32.8L2.5 263.4c-.8-2.4-.8-4.9-1.2-7.4H240zM0 224V-16c0-26.5 21.5-48 48-48h416c26.5 0 48 21.5 48 48v240z"/><glyph glyph-name="boxes" unicode="" horiz-adv-x="576" d="M560 160h-80V64l-32 21.3L416 64v96h-80c-8.8 0-16-7.2-16-16V-48c0-8.8 7.2-16 16-16h224c8.8 0 16 7.2 16 16v192c0 8.8-7.2 16-16 16m-384 64h224c8.8 0 16 7.2 16 16v192c0 8.8-7.2 16-16 16h-80v-96l-32 21.3-32-21.3v96h-80c-8.8 0-16-7.2-16-16V240c0-8.8 7.2-16 16-16m64-64h-80V64l-32 21.3L96 64v96H16c-8.8 0-16-7.2-16-16V-48c0-8.8 7.2-16 16-16h224c8.8 0 16 7.2 16 16v192c0 8.8-7.2 16-16 16"/><glyph glyph-name="braille" unicode="" horiz-adv-x="640" d="M128 192c0-35.346-28.654-64-64-64S0 156.654 0 192s28.654 64 64 64 64-28.654 64-64M64 64c-17.673 0-32-14.327-32-32S46.327 0 64 0s32 14.327 32 32-14.327 32-32 32m0 352c-35.346 0-64-28.654-64-64s28.654-64 64-64 64 28.654 64 64-28.654 64-64 64m160-192c-17.673 0-32-14.327-32-32s14.327-32 32-32 32 14.327 32 32-14.327 32-32 32m0-160c-17.673 0-32-14.327-32-32s14.327-32 32-32 32 14.327 32 32-14.327 32-32 32m0 352c-35.346 0-64-28.654-64-64s28.654-64 64-64 64 28.654 64 64-28.654 64-64 64m224-192c-17.673 0-32-14.327-32-32s14.327-32 32-32 32 14.327 32 32-14.327 32-32 32m0-160c-17.673 0-32-14.327-32-32s14.327-32 32-32 32 14.327 32 32-14.327 32-32 32m0 352c-35.346 0-64-28.654-64-64s28.654-64 64-64 64 28.654 64 64-28.654 64-64 64m160-192c-17.673 0-32-14.327-32-32s14.327-32 32-32 32 14.327 32 32-14.327 32-32 32m0-160c-17.673 0-32-14.327-32-32s14.327-32 32-32 32 14.327 32 32-14.327 32-32 32m0 320c-17.673 0-32-14.327-32-32s14.327-32 32-32 32 14.327 32 32-14.327 32-32 32"/><glyph glyph-name="briefcase" unicode="" horiz-adv-x="512" d="M320 160h192V16c0-26.51-21.49-48-48-48H48C21.49-32 0-10.51 0 16v144h192v-20c0-6.627 5.373-12 12-12h104c6.627 0 12 5.373 12 12zm192 112v-80H0v80c0 26.51 21.49 48 48 48h80v48c0 26.51 21.49 48 48 48h160c26.51 0 48-21.49 48-48v-48h80c26.51 0 48-21.49 48-48m-192 80H192v-32h128z"/><glyph glyph-name="bug" unicode="" horiz-adv-x="512" d="M511.988 159.1c-.478-17.43-15.217-31.1-32.653-31.1H424v-16c0-21.864-4.882-42.584-13.6-61.145l60.228-60.228c12.496-12.497 12.496-32.758 0-45.255-12.498-12.497-32.759-12.496-45.256 0L370.636.108C345.886-19.965 314.351-32 280-32v244c0 6.627-5.373 12-12 12h-24c-6.627 0-12-5.373-12-12V-32c-34.351 0-65.886 12.035-90.636 32.108L86.628-54.628c-12.498-12.497-32.759-12.496-45.256 0s-12.496 32.758 0 45.255L101.6 50.855C92.882 69.416 88 90.136 88 112v16H32.666C15.23 128 .491 141.67.013 159.1-.484 177.184 14.028 192 32 192h56v58.745l-46.628 46.628c-12.496 12.497-12.496 32.758 0 45.255 12.498 12.497 32.758 12.497 45.256 0L141.255 288h229.489l54.627 54.627c12.498 12.497 32.758 12.497 45.256 0 12.496-12.497 12.496-32.758 0-45.255L424 250.745V192h56c17.972 0 32.484-14.816 31.988-32.9M257 448c-61.856 0-112-50.144-112-112h224c0 61.856-50.144 112-112 112"/><glyph glyph-name="building" unicode="" horiz-adv-x="448" d="M436-32h-20v456c0 13.255-10.745 24-24 24H56c-13.255 0-24-10.745-24-24V-32H12C5.373-32 0-37.373 0-44v-20h448v20c0 6.627-5.373 12-12 12M128 372c0 6.627 5.373 12 12 12h40c6.627 0 12-5.373 12-12v-40c0-6.627-5.373-12-12-12h-40c-6.627 0-12 5.373-12 12zm0-96c0 6.627 5.373 12 12 12h40c6.627 0 12-5.373 12-12v-40c0-6.627-5.373-12-12-12h-40c-6.627 0-12 5.373-12 12zm52-148h-40c-6.627 0-12 5.373-12 12v40c0 6.627 5.373 12 12 12h40c6.627 0 12-5.373 12-12v-40c0-6.627-5.373-12-12-12m76-160h-64v84c0 6.627 5.373 12 12 12h40c6.627 0 12-5.373 12-12zm64 172c0-6.627-5.373-12-12-12h-40c-6.627 0-12 5.373-12 12v40c0 6.627 5.373 12 12 12h40c6.627 0 12-5.373 12-12zm0 96c0-6.627-5.373-12-12-12h-40c-6.627 0-12 5.373-12 12v40c0 6.627 5.373 12 12 12h40c6.627 0 12-5.373 12-12zm0 96c0-6.627-5.373-12-12-12h-40c-6.627 0-12 5.373-12 12v40c0 6.627 5.373 12 12 12h40c6.627 0 12-5.373 12-12z"/><glyph glyph-name="bullhorn" unicode="" horiz-adv-x="576" d="M576 224c0 20.896-13.36 38.666-32 45.258V384c0 35.346-28.654 64-64 64-64.985-56-142.031-128-272-128H48c-26.51 0-48-21.49-48-48v-96c0-26.51 21.49-48 48-48h43.263C72.521 63.35 93.742 11.621 110.077-39.44c1.702-5.32 5.203-9.893 9.922-12.88 20.78-13.155 68.355-15.657 93.773-5.151 16.046 6.633 19.96 27.423 7.522 39.537-18.508 18.026-30.136 36.91-19.795 60.858a12.28 12.28 0 0 1-1.045 11.673c-16.309 24.679-3.581 62.107 28.517 72.752C346.403 120.113 418.591 52.919 480 0c35.346 0 64 28.654 64 64v114.742c18.64 6.592 32 24.362 32 45.258M480 84.145c-54.609 44.979-125.033 92.94-224 104.982v69.747c98.967 12.042 169.391 60.002 224 104.982z"/><glyph glyph-name="bullseye" unicode="" horiz-adv-x="512" d="M256 376c101.689 0 184-82.295 184-184C440 90.311 357.705 8 256 8 154.311 8 72 90.295 72 192c0 101.689 82.295 184 184 184m0 64C119.033 440 8 328.967 8 192S119.033-56 256-56 504 55.033 504 192 392.967 440 256 440m0-184c35.29 0 64-28.71 64-64s-28.71-64-64-64-64 28.71-64 64 28.71 64 64 64m0 64c-70.692 0-128-57.308-128-128S185.308 64 256 64s128 57.308 128 128-57.308 128-128 128"/><glyph glyph-name="bus" unicode="" horiz-adv-x="512" d="M512 296v-80c0-13.255-10.745-24-24-24h-8V24c0-13.255-10.745-24-24-24h-8v-40c0-13.255-10.745-24-24-24h-48c-13.255 0-24 10.745-24 24V0H160v-40c0-13.255-10.745-24-24-24H88c-13.255 0-24 10.745-24 24V0h-8C42.745 0 32 10.745 32 24v168h-8c-13.255 0-24 10.745-24 24v80c0 13.255 10.745 24 24 24h8v48c0 44.183 100.288 80 224 80s224-35.817 224-80v-48h8c13.255 0 24-10.745 24-24M112 128c-22.091 0-40-17.909-40-40s17.909-40 40-40 40 17.909 40 40-17.909 40-40 40m288 0c-22.091 0-40-17.909-40-40s17.909-40 40-40 40 17.909 40 40-17.909 40-40 40m32 56v144c0 13.255-10.745 24-24 24H104c-13.255 0-24-10.745-24-24V184c0-13.255 10.745-24 24-24h304c13.255 0 24 10.745 24 24"/><glyph glyph-name="calculator" unicode="" horiz-adv-x="448" d="M0-16v416c0 26.51 21.49 48 48 48h352c26.51 0 48-21.49 48-48V-16c0-26.51-21.49-48-48-48H48C21.49-64 0-42.51 0-16m384 284v104c0 6.627-5.373 12-12 12H76c-6.627 0-12-5.373-12-12V268c0-6.627 5.373-12 12-12h296c6.627 0 12 5.373 12 12M128 140v40c0 6.627-5.373 12-12 12H76c-6.627 0-12-5.373-12-12v-40c0-6.627 5.373-12 12-12h40c6.627 0 12 5.373 12 12M384 12v168c0 6.627-5.373 12-12 12h-40c-6.627 0-12-5.373-12-12V12c0-6.627 5.373-12 12-12h40c6.627 0 12 5.373 12 12m-256 0v40c0 6.627-5.373 12-12 12H76c-6.627 0-12-5.373-12-12V12c0-6.627 5.373-12 12-12h40c6.627 0 12 5.373 12 12m128 128v40c0 6.627-5.373 12-12 12h-40c-6.627 0-12-5.373-12-12v-40c0-6.627 5.373-12 12-12h40c6.627 0 12 5.373 12 12m0-128v40c0 6.627-5.373 12-12 12h-40c-6.627 0-12-5.373-12-12V12c0-6.627 5.373-12 12-12h40c6.627 0 12 5.373 12 12"/><glyph glyph-name="calendar-alt" unicode="" horiz-adv-x="448" d="M436 288H12c-6.6 0-12 5.4-12 12v36c0 26.5 21.5 48 48 48h48v52c0 6.6 5.4 12 12 12h40c6.6 0 12-5.4 12-12v-52h128v52c0 6.6 5.4 12 12 12h40c6.6 0 12-5.4 12-12v-52h48c26.5 0 48-21.5 48-48v-36c0-6.6-5.4-12-12-12M12 256h424c6.6 0 12-5.4 12-12V-16c0-26.5-21.5-48-48-48H48C21.5-64 0-42.5 0-16v260c0 6.6 5.4 12 12 12M128 52c0 6.6-5.4 12-12 12H76c-6.6 0-12-5.4-12-12V12c0-6.6 5.4-12 12-12h40c6.6 0 12 5.4 12 12zm0 128c0 6.6-5.4 12-12 12H76c-6.6 0-12-5.4-12-12v-40c0-6.6 5.4-12 12-12h40c6.6 0 12 5.4 12 12zM256 52c0 6.6-5.4 12-12 12h-40c-6.6 0-12-5.4-12-12V12c0-6.6 5.4-12 12-12h40c6.6 0 12 5.4 12 12zm0 128c0 6.6-5.4 12-12 12h-40c-6.6 0-12-5.4-12-12v-40c0-6.6 5.4-12 12-12h40c6.6 0 12 5.4 12 12zM384 52c0 6.6-5.4 12-12 12h-40c-6.6 0-12-5.4-12-12V12c0-6.6 5.4-12 12-12h40c6.6 0 12 5.4 12 12zm0 128c0 6.6-5.4 12-12 12h-40c-6.6 0-12-5.4-12-12v-40c0-6.6 5.4-12 12-12h40c6.6 0 12 5.4 12 12z"/><glyph glyph-name="calendar-check" unicode="" horiz-adv-x="448" d="M436 288H12c-6.627 0-12 5.373-12 12v36c0 26.51 21.49 48 48 48h48v52c0 6.627 5.373 12 12 12h40c6.627 0 12-5.373 12-12v-52h128v52c0 6.627 5.373 12 12 12h40c6.627 0 12-5.373 12-12v-52h48c26.51 0 48-21.49 48-48v-36c0-6.627-5.373-12-12-12M12 256h424c6.627 0 12-5.373 12-12V-16c0-26.51-21.49-48-48-48H48C21.49-64 0-42.51 0-16v260c0 6.627 5.373 12 12 12m333.296-95.947-28.169 28.398c-4.667 4.705-12.265 4.736-16.97.068L194.12 83.335l-45.98 46.352c-4.667 4.705-12.266 4.736-16.971.068l-28.397-28.17c-4.705-4.667-4.736-12.265-.068-16.97l82.601-83.269c4.667-4.705 12.265-4.736 16.97-.068l142.953 141.805c4.705 4.667 4.736 12.265.068 16.97"/><glyph glyph-name="calendar-minus" unicode="" horiz-adv-x="448" d="M436 288H12c-6.6 0-12 5.4-12 12v36c0 26.5 21.5 48 48 48h48v52c0 6.6 5.4 12 12 12h40c6.6 0 12-5.4 12-12v-52h128v52c0 6.6 5.4 12 12 12h40c6.6 0 12-5.4 12-12v-52h48c26.5 0 48-21.5 48-48v-36c0-6.6-5.4-12-12-12M12 256h424c6.6 0 12-5.4 12-12V-16c0-26.5-21.5-48-48-48H48C21.5-64 0-42.5 0-16v260c0 6.6 5.4 12 12 12M316 64c6.6 0 12 5.4 12 12v40c0 6.6-5.4 12-12 12H132c-6.6 0-12-5.4-12-12V76c0-6.6 5.4-12 12-12z"/><glyph glyph-name="calendar-plus" unicode="" horiz-adv-x="448" d="M436 288H12c-6.6 0-12 5.4-12 12v36c0 26.5 21.5 48 48 48h48v52c0 6.6 5.4 12 12 12h40c6.6 0 12-5.4 12-12v-52h128v52c0 6.6 5.4 12 12 12h40c6.6 0 12-5.4 12-12v-52h48c26.5 0 48-21.5 48-48v-36c0-6.6-5.4-12-12-12M12 256h424c6.6 0 12-5.4 12-12V-16c0-26.5-21.5-48-48-48H48C21.5-64 0-42.5 0-16v260c0 6.6 5.4 12 12 12m316-140c0 6.6-5.4 12-12 12h-60v60c0 6.6-5.4 12-12 12h-40c-6.6 0-12-5.4-12-12v-60h-60c-6.6 0-12-5.4-12-12V76c0-6.6 5.4-12 12-12h60V4c0-6.6 5.4-12 12-12h40c6.6 0 12 5.4 12 12v60h60c6.6 0 12 5.4 12 12z"/><glyph glyph-name="calendar-times" unicode="" horiz-adv-x="448" d="M436 288H12c-6.6 0-12 5.4-12 12v36c0 26.5 21.5 48 48 48h48v52c0 6.6 5.4 12 12 12h40c6.6 0 12-5.4 12-12v-52h128v52c0 6.6 5.4 12 12 12h40c6.6 0 12-5.4 12-12v-52h48c26.5 0 48-21.5 48-48v-36c0-6.6-5.4-12-12-12M12 256h424c6.6 0 12-5.4 12-12V-16c0-26.5-21.5-48-48-48H48C21.5-64 0-42.5 0-16v260c0 6.6 5.4 12 12 12M269.3 96l48.1 48.1c4.7 4.7 4.7 12.3 0 17l-28.3 28.3c-4.7 4.7-12.3 4.7-17 0L224 141.3l-48.1 48.1c-4.7 4.7-12.3 4.7-17 0l-28.3-28.3c-4.7-4.7-4.7-12.3 0-17L178.7 96l-48.1-48.1c-4.7-4.7-4.7-12.3 0-17l28.3-28.3c4.7-4.7 12.3-4.7 17 0L224 50.7l48.1-48.1c4.7-4.7 12.3-4.7 17 0l28.3 28.3c4.7 4.7 4.7 12.3 0 17z"/><glyph glyph-name="calendar" unicode="" horiz-adv-x="448" d="M12 256h424c6.6 0 12-5.4 12-12V-16c0-26.5-21.5-48-48-48H48C21.5-64 0-42.5 0-16v260c0 6.6 5.4 12 12 12m436 44v36c0 26.5-21.5 48-48 48h-48v52c0 6.6-5.4 12-12 12h-40c-6.6 0-12-5.4-12-12v-52H160v52c0 6.6-5.4 12-12 12h-40c-6.6 0-12-5.4-12-12v-52H48c-26.5 0-48-21.5-48-48v-36c0-6.6 5.4-12 12-12h424c6.6 0 12 5.4 12 12"/><glyph glyph-name="camera-retro" unicode="" horiz-adv-x="512" d="M48 416c-26.5 0-48-21.5-48-48V16c0-26.5 21.5-48 48-48h416c26.5 0 48 21.5 48 48v352c0 26.5-21.5 48-48 48zm0-32h106c3.3 0 6-2.7 6-6v-20c0-3.3-2.7-6-6-6H38c-3.3 0-6 2.7-6 6v10c0 8.8 7.2 16 16 16m426-96H38c-3.3 0-6 2.7-6 6v36c0 3.3 2.7 6 6 6h138l30.2 45.3c1.1 1.7 3 2.7 5 2.7H464c8.8 0 16-7.2 16-16v-74c0-3.3-2.7-6-6-6M256 24c-66.2 0-120 53.8-120 120s53.8 120 120 120 120-53.8 120-120S322.2 24 256 24m0 208c-48.5 0-88-39.5-88-88s39.5-88 88-88 88 39.5 88 88-39.5 88-88 88m-48-104c-8.8 0-16 7.2-16 16 0 35.3 28.7 64 64 64 8.8 0 16-7.2 16-16s-7.2-16-16-16c-17.6 0-32-14.4-32-32 0-8.8-7.2-16-16-16"/><glyph glyph-name="camera" unicode="" horiz-adv-x="512" d="M512 304V16c0-26.5-21.5-48-48-48H48C21.5-32 0-10.5 0 16v288c0 26.5 21.5 48 48 48h88l12.3 32.9c7 18.7 24.9 31.1 44.9 31.1h125.5c20 0 37.9-12.4 44.9-31.1L376 352h88c26.5 0 48-21.5 48-48M376 160c0 66.2-53.8 120-120 120s-120-53.8-120-120S189.8 40 256 40s120 53.8 120 120m-32 0c0-48.5-39.5-88-88-88s-88 39.5-88 88 39.5 88 88 88 88-39.5 88-88"/><glyph glyph-name="car" unicode="" horiz-adv-x="512" d="M499.991 280h-54.815l-7.854 20.944c-9.192 24.513-25.425 45.351-46.942 60.263S343.651 384 317.472 384H194.528c-26.18 0-51.391-7.882-72.908-22.793-21.518-14.912-37.75-35.75-46.942-60.263L66.824 280H12.009c-8.191 0-13.974-8.024-11.384-15.795l8-24A12 12 0 0 1 20.009 232h28.815l-.052-.14C29.222 220.907 16 200.003 16 176v-48c0-16.225 6.049-31.029 16-42.309V24C32 10.745 42.745 0 56 0h48c13.255 0 24 10.745 24 24v40h256V24c0-13.255 10.745-24 24-24h48c13.255 0 24 10.745 24 24v61.691c9.951 11.281 16 26.085 16 42.309v48c0 24.003-13.222 44.907-32.772 55.86l-.052.14h28.815a12 12 0 0 1 11.384 8.205l8 24c2.59 7.771-3.193 15.795-11.384 15.795m-365.388-1.528C143.918 303.311 168 320 194.528 320h122.944c26.528 0 50.61-16.689 59.925-41.528L391.824 240H120.176zM88 120c-17.673 0-32 14.327-32 32s14.327 32 32 32 48-30.327 48-48-30.327-16-48-16m336 0c-17.673 0-48-1.673-48 16s30.327 48 48 48 32-14.327 32-32-14.327-32-32-32"/><glyph glyph-name="caret-down" unicode="" horiz-adv-x="320" d="M31.3 256h257.3c17.8 0 26.7-21.5 14.1-34.1L174.1 93.2c-7.8-7.8-20.5-7.8-28.3 0L17.2 221.9C4.6 234.5 13.5 256 31.3 256"/><glyph glyph-name="caret-left" unicode="" horiz-adv-x="192" d="M192 320.662V63.338c0-17.818-21.543-26.741-34.142-14.142L29.196 177.858c-7.81 7.81-7.81 20.474 0 28.284l128.662 128.662c12.599 12.6 34.142 3.676 34.142-14.142"/><glyph glyph-name="caret-right" unicode="" horiz-adv-x="192" d="M0 63.338v257.324c0 17.818 21.543 26.741 34.142 14.142l128.662-128.662c7.81-7.81 7.81-20.474 0-28.284L34.142 49.196C21.543 36.596 0 45.52 0 63.338"/><glyph glyph-name="caret-square-down" unicode="" horiz-adv-x="448" d="M448 368V16c0-26.5-21.5-48-48-48H48C21.5-32 0-10.5 0 16v352c0 26.5 21.5 48 48 48h352c26.5 0 48-21.5 48-48M92.5 227.5l123-123c4.7-4.7 12.3-4.7 17 0l123 123c7.6 7.6 2.2 20.5-8.5 20.5H101c-10.7 0-16.1-12.9-8.5-20.5"/><glyph glyph-name="caret-square-left" unicode="" horiz-adv-x="448" d="M400-32H48C21.49-32 0-10.51 0 16v352c0 26.51 21.49 48 48 48h352c26.51 0 48-21.49 48-48V16c0-26.51-21.49-48-48-48M259.515 323.515l-123.03-123.03c-4.686-4.686-4.686-12.284 0-16.971L259.514 60.485c7.56-7.56 20.485-2.206 20.485 8.485v246.059c.001 10.691-12.925 16.045-20.484 8.486"/><glyph glyph-name="caret-square-right" unicode="" horiz-adv-x="448" d="M48 416h352c26.51 0 48-21.49 48-48V16c0-26.51-21.49-48-48-48H48C21.49-32 0-10.51 0 16v352c0 26.51 21.49 48 48 48M188.485 60.485l123.029 123.029c4.686 4.686 4.686 12.284 0 16.971l-123.029 123.03c-7.56 7.56-20.485 2.206-20.485-8.485V68.971c0-10.691 12.926-16.045 20.485-8.486"/><glyph glyph-name="caret-square-up" unicode="" horiz-adv-x="448" d="M0 16v352c0 26.51 21.49 48 48 48h352c26.51 0 48-21.49 48-48V16c0-26.51-21.49-48-48-48H48C21.49-32 0-10.51 0 16m355.515 140.485-123.03 123.03c-4.686 4.686-12.284 4.686-16.971 0L92.485 156.485c-7.56-7.56-2.206-20.485 8.485-20.485h246.059c10.691 0 16.045 12.926 8.486 20.485"/><glyph glyph-name="caret-up" unicode="" horiz-adv-x="320" d="M288.662 96H31.338c-17.818 0-26.741 21.543-14.142 34.142l128.662 128.662c7.81 7.81 20.474 7.81 28.284 0l128.662-128.662C315.404 117.543 306.48 96 288.662 96"/><glyph glyph-name="cart-arrow-down" unicode="" horiz-adv-x="576" d="M504.717 128H211.572l6.545-32h268.418c15.401 0 26.816-14.301 23.403-29.319l-5.517-24.276C523.112 33.332 536 14.172 536-8c0-31.202-25.519-56.444-56.824-55.994-29.823.429-54.35 24.631-55.155 54.447-.44 16.287 6.085 31.049 16.803 41.548H231.176C241.553 21.835 248 7.674 248-8c0-31.813-26.528-57.431-58.67-55.938-28.54 1.325-51.751 24.385-53.251 52.917-1.158 22.034 10.436 41.455 28.051 51.586L93.883 384H24c-13.255 0-24 10.745-24 24v16c0 13.255 10.745 24 24 24h102.529c11.401 0 21.228-8.021 23.513-19.19l9.166-44.81H551.99c15.401 0 26.816-14.301 23.403-29.319l-47.273-208C525.637 135.754 515.923 128 504.717 128M403.029 256H360v60c0 6.627-5.373 12-12 12h-24c-6.627 0-12-5.373-12-12v-60h-43.029c-10.691 0-16.045-12.926-8.485-20.485l67.029-67.029c4.686-4.686 12.284-4.686 16.971 0l67.029 67.029c7.559 7.559 2.205 20.485-8.486 20.485"/><glyph glyph-name="cart-plus" unicode="" horiz-adv-x="576" d="M504.717 128H211.572l6.545-32h268.418c15.401 0 26.816-14.301 23.403-29.319l-5.517-24.276C523.112 33.332 536 14.172 536-8c0-31.202-25.519-56.444-56.824-55.994-29.823.429-54.35 24.631-55.155 54.447-.44 16.287 6.085 31.049 16.803 41.548H231.176C241.553 21.835 248 7.674 248-8c0-31.813-26.528-57.431-58.67-55.938-28.54 1.325-51.751 24.385-53.251 52.917-1.158 22.034 10.436 41.455 28.051 51.586L93.883 384H24c-13.255 0-24 10.745-24 24v16c0 13.255 10.745 24 24 24h102.529c11.401 0 21.228-8.021 23.513-19.19l9.166-44.81H551.99c15.401 0 26.816-14.301 23.403-29.319l-47.273-208C525.637 135.754 515.923 128 504.717 128M408 280h-48v40c0 8.837-7.163 16-16 16h-16c-8.837 0-16-7.163-16-16v-40h-48c-8.837 0-16-7.163-16-16v-16c0-8.837 7.163-16 16-16h48v-40c0-8.837 7.163-16 16-16h16c8.837 0 16 7.163 16 16v40h48c8.837 0 16 7.163 16 16v16c0 8.837-7.163 16-16 16"/><glyph glyph-name="certificate" unicode="" horiz-adv-x="512" d="m458.622 192.08 45.985 45.005c13.708 12.977 7.316 36.039-10.664 40.339l-62.65 15.99 17.661 62.015c4.991 17.838-11.829 34.663-29.661 29.671l-61.994-17.667-15.984 62.671c-4.23 17.699-27.55 24.172-40.325 10.668L256 394.43l-44.989 46.341c-12.63 13.351-36.047 7.234-40.325-10.668l-15.984-62.671-61.995 17.667c-17.837 4.994-34.651-11.837-29.661-29.671l17.661-62.015-62.65-15.99C.069 273.122-6.31 250.056 7.392 237.085l45.985-45.005-45.985-45.004c-13.708-12.977-7.316-36.039 10.664-40.339l62.65-15.99-17.661-62.015C58.054 10.894 74.874-5.931 92.706-.939L154.7 16.728l15.984-62.671c4.439-18.575 27.696-24.018 40.325-10.668L256-10.61l44.989-46.001c12.5-13.488 35.987-7.486 40.325 10.668l15.984 62.671L419.292-.939c17.836-4.994 34.651 11.837 29.661 29.671l-17.661 62.015 62.65 15.99c17.987 4.302 24.366 27.367 10.664 40.339z"/><glyph glyph-name="chart-area" unicode="" horiz-adv-x="512" d="M500 64c6.6 0 12-5.4 12-12V12c0-6.6-5.4-12-12-12H12C5.4 0 0 5.4 0 12v360c0 6.6 5.4 12 12 12h40c6.6 0 12-5.4 12-12V64zM372.7 288.5 288 232l-85.3 113.7c-5.1 6.8-15.5 6.3-19.9-1L96 200V96h384l-89.9 187.8c-3.2 6.5-11.4 8.7-17.4 4.7"/><glyph glyph-name="chart-bar" unicode="" horiz-adv-x="512" d="M500 64c6.6 0 12-5.4 12-12V12c0-6.6-5.4-12-12-12H12C5.4 0 0 5.4 0 12v360c0 6.6 5.4 12 12 12h40c6.6 0 12-5.4 12-12V64zm-308 44v72c0 6.6-5.4 12-12 12h-40c-6.6 0-12-5.4-12-12v-72c0-6.6 5.4-12 12-12h40c6.6 0 12 5.4 12 12m192 0v136c0 6.6-5.4 12-12 12h-40c-6.6 0-12-5.4-12-12V108c0-6.6 5.4-12 12-12h40c6.6 0 12 5.4 12 12m-96 0v200c0 6.6-5.4 12-12 12h-40c-6.6 0-12-5.4-12-12V108c0-6.6 5.4-12 12-12h40c6.6 0 12 5.4 12 12m192 0v232c0 6.6-5.4 12-12 12h-40c-6.6 0-12-5.4-12-12V108c0-6.6 5.4-12 12-12h40c6.6 0 12 5.4 12 12"/><glyph glyph-name="chart-line" unicode="" horiz-adv-x="512" d="M500 64c6.6 0 12-5.4 12-12V12c0-6.6-5.4-12-12-12H12C5.4 0 0 5.4 0 12v360c0 6.6 5.4 12 12 12h40c6.6 0 12-5.4 12-12V64zm-44 288H344c-21.4 0-32.1-25.9-17-41l32.9-32.9-72-72.9-55.6 55.6c-4.7 4.7-12.2 4.7-16.9 0L96.4 143c-4.7-4.6-4.8-12.2-.2-16.9l28.5-29.4c4.7-4.8 12.4-4.9 17.1-.1l82.1 82.1 55.5-55.5c4.7-4.7 12.3-4.7 17 0l109.2 109.2L439 199c15.1-15.1 41-4.4 41 17v112c0 13.3-10.7 24-24 24"/><glyph glyph-name="chart-pie" unicode="" horiz-adv-x="576" d="M288 435.7V208h227.7c6.9 0 12.3 5.8 12 12.7-6.4 122.4-104.5 220.6-227 227-6.9.3-12.7-5.1-12.7-12M552.7 160c6.9 0 12.3-5.8 12-12.7-2.8-53.2-23.2-105.6-61.2-147.8-4.6-5.1-12.6-5.4-17.5-.5L325 160zM401 15c4.8-4.8 4.7-12.8-.4-17.3C358-40.7 301.6-64 239.8-64 107.6-63.9-.2 44.2 0 176.5c.2 128.1 100.8 232.6 227.3 239.2 6.9.4 12.7-5.1 12.7-12V176z"/><glyph glyph-name="check-circle" unicode="" horiz-adv-x="512" d="M504 192C504 55.033 392.967-56 256-56S8 55.033 8 192s111.033 248 248 248 248-111.033 248-248M227.314 60.686l184 184c6.248 6.248 6.248 16.379 0 22.627l-22.627 22.627c-6.248 6.249-16.379 6.249-22.628 0L216 139.882l-70.059 70.059c-6.248 6.248-16.379 6.248-22.628 0l-22.627-22.627c-6.248-6.248-6.248-16.379 0-22.627l104-104c6.249-6.249 16.379-6.249 22.628-.001"/><glyph glyph-name="check-square" unicode="" horiz-adv-x="448" d="M400-32H48C21.49-32 0-10.51 0 16v352c0 26.51 21.49 48 48 48h352c26.51 0 48-21.49 48-48V16c0-26.51-21.49-48-48-48M195.314 66.059l184 184c6.248 6.248 6.248 16.379 0 22.627l-22.627 22.627c-6.248 6.248-16.379 6.249-22.628 0L184 145.255l-70.059 70.059c-6.248 6.248-16.379 6.248-22.628 0l-22.627-22.627c-6.248-6.248-6.248-16.379 0-22.627l104-104c6.249-6.25 16.379-6.25 22.628-.001"/><glyph glyph-name="check" unicode="" horiz-adv-x="512" d="m173.898 8.596-166.4 166.4c-9.997 9.997-9.997 26.206 0 36.204l36.203 36.204c9.997 9.998 26.207 9.998 36.204 0L192 135.31l240.095 240.094c9.997 9.997 26.207 9.997 36.204 0l36.203-36.204c9.997-9.997 9.997-26.206 0-36.204L210.102 8.595c-9.998-9.997-26.207-9.997-36.204.001"/><glyph glyph-name="chess-bishop" unicode="" horiz-adv-x="320" d="M123.158 370.119C107.369 375.47 96 390.403 96 408c0 22.091 17.909 40 40 40h47.796c22.091 0 40-17.909 40-40 0-17.541-11.295-32.434-27.005-37.829 23.993-16.657 48.577-46.839 68.703-82.05L144.929 167.557a6 6 0 0 1 0-8.485l14.142-14.142a6 6 0 0 1 8.485 0L280.9 258.274c17.758-38.297 29.371-79.443 29.371-114.273 0-53.786-22.897-75.788-58.446-86.033V0H68.174v57.97C32.631 68.216 9.739 90.219 9.739 144c0 78.029 58.281 187.766 113.419 226.119M320-52v24c0 6.627-5.373 12-12 12H12C5.373-16 0-21.373 0-28v-24c0-6.627 5.373-12 12-12h296c6.627 0 12 5.373 12 12"/><glyph glyph-name="chess-board" unicode="" horiz-adv-x="512" d="M256 192v-64h-64v64zm0 256h-64v-64h64zm0-256h64v64h-64zm128 256h-64v-64h64zm0-512h64V0h-64zM512 0v64h-64V0zM128-64h64V0h-64zm0 512H64v-64h64zm384-192v64h-64v-64zm0-128v64h-64v-64zM0-64h64V0H0zm0 448v-64h64v64zm0-128v-64h64v64zm0-128V64h64v64zM256-64h64V0h-64zM192 64V0h64v64zm64 192v64h-64v-64zM64 64V0h64v64zm64 128H64v-64h64zM384 64h64v64h-64zm128 384h-64v-64h64zM384 192h64v64h-64zm0 192v-64h64v64zM320 64V0h64v64zm-192 64V64h64v64zm128 0V64h64v64zm-64 128h-64v-64h64zm-64 64H64v-64h64zm192-192h64v64h-64zM192 320v64h-64v-64zm128 0v64h-64v-64zm0-64h64v64h-64z"/><glyph glyph-name="chess-king" unicode="" horiz-adv-x="448" d="M416-28v-24c0-6.627-5.373-12-12-12H44c-6.627 0-12 5.373-12 12v24c0 6.627 5.373 12 12 12h360c6.627 0 12-5.373 12-12m-8.033 324H248v48h50a6 6 0 0 1 6 6v36a6 6 0 0 1-6 6h-50v50a6 6 0 0 1-6 6h-36a6 6 0 0 1-6-6v-50h-50a6 6 0 0 1-6-6v-36a6 6 0 0 1 6-6h50v-48H40.033c-27.574 0-46.879-27.244-37.738-53.259L87.582 0h272.836l85.287 242.741C454.846 268.756 435.541 296 407.967 296"/><glyph glyph-name="chess-knight" unicode="" horiz-adv-x="384" d="M352 224V0H32v46.557c0 30.302 17.12 58.003 44.223 71.554l57.243 28.622A48 48 0 0 1 160 189.666V240l-22.127-11.063a24 24 0 0 1-12.55-15.645l-11.835-47.338a12 12 0 0 0-7.185-8.231l-29.601-11.84a12 12 0 0 0-9.33.176L7.126 172.833A12 12 0 0 0 0 183.799v158.26c0 6.365 2.529 12.47 7.03 16.971L16 368 1.789 396.422A16.94 16.94 0 0 0 0 404c0 6.627 5.373 12 12 12h148c106.039 0 192-85.961 192-192m20-240H12C5.373-16 0-21.373 0-28v-24c0-6.627 5.373-12 12-12h360c6.627 0 12 5.373 12 12v24c0 6.627-5.373 12-12 12M52 320c-11.046 0-20-8.954-20-20s8.954-20 20-20 20 8.954 20 20-8.954 20-20 20"/><glyph glyph-name="chess-pawn" unicode="" horiz-adv-x="320" d="M264 0H56s60 42.743 60 176H84c-6.627 0-12 5.373-12 12v24c0 6.627 5.373 12 12 12h40.209C95.721 237.44 76 266.412 76 300c0 46.392 37.608 84 84 84s84-37.608 84-84c0-33.588-19.721-62.56-48.209-76H236c6.627 0 12-5.373 12-12v-24c0-6.627-5.373-12-12-12h-32C204 42.743 264 0 264 0m28-16H28c-6.627 0-12-5.373-12-12v-24c0-6.627 5.373-12 12-12h264c6.627 0 12 5.373 12 12v24c0 6.627-5.373 12-12 12"/><glyph glyph-name="chess-queen" unicode="" horiz-adv-x="512" d="M436-64H76c-6.627 0-12 5.373-12 12v24c0 6.627 5.373 12 12 12h360c6.627 0 12-5.373 12-12v-24c0-6.627-5.373-12-12-12M255.579 448c-30.928 0-56-25.072-56-56s25.072-56 56-56 56 25.072 56 56-25.072 56-56 56m204.568-154.634c-5.768 3.045-12.916.932-16.082-4.77-8.616-15.516-22.747-37.801-44.065-37.801-28.714 0-30.625 19.804-31.686 57.542-.183 6.492-5.501 11.664-11.995 11.664h-41.006c-5.175 0-9.754-3.328-11.388-8.238-8.89-26.709-26.073-40.992-47.925-40.992s-39.034 14.283-47.925 40.992c-1.634 4.91-6.213 8.238-11.388 8.238h-41.005c-6.495 0-11.813-5.174-11.995-11.667-1.052-37.642-2.934-57.539-31.688-57.539-20.691 0-33.817 20.224-44.425 38.025-3.266 5.48-10.258 7.431-15.899 4.453l-39.179-20.679a12 12 0 0 1-5.51-15.145L112 0h288l105.014 257.448a12 12 0 0 1-5.51 15.145z"/><glyph glyph-name="chess-rook" unicode="" horiz-adv-x="384" d="M81.241 232.973C80.957 189.08 77.411 99.924 48 0h287.982c-29.4 99.604-32.936 188.912-33.221 232.975l45.418 42.312a12 12 0 0 1 3.82 8.78V404c0 6.627-5.373 12-12 12h-40c-6.627 0-12-5.373-12-12v-44h-48v44c0 6.627-5.373 12-12 12h-72c-6.627 0-12-5.373-12-12v-44H96v44c0 6.627-5.373 12-12 12H44c-6.627 0-12-5.373-12-12V284.068c0-3.33 1.384-6.51 3.82-8.78zM160 192c0 17.673 14.327 32 32 32s32-14.327 32-32v-64.004h-64zM384-28v-24c0-6.627-5.373-12-12-12H12C5.373-64 0-58.627 0-52v24c0 6.627 5.373 12 12 12h360c6.627 0 12-5.373 12-12"/><glyph glyph-name="chess" unicode="" horiz-adv-x="512" d="M199.821 230.367a6 6 0 0 0 6-6l-.001-20.766a6 6 0 0 0-6-6h-25.805c0-31.715-2.153-96.201 17.398-153.229H64.597C84.54 102.548 82.02 168.755 82.02 197.601H56.183a6 6 0 0 0-6 6l.002 20.766a6 6 0 0 0 6 6zM41.554 332.912l34.58-95.071h103.734l34.572 95.072c2.846 7.826-2.95 16.101-11.278 16.101H152v30.22h21.57a6 6 0 0 1 6 6v22.383a6 6 0 0 1-6 6h-28.367V442a6 6 0 0 1-6 6H116.82a6 6 0 0 1-6-6v-28.383H82.421a6 6 0 0 1-6-6v-22.383a6 6 0 0 1 6-6H104v-30.219H52.831c-8.328-.001-14.124-8.276-11.277-16.103M222.678 2.83v28.067a6 6 0 0 1-6 6H39.322a6 6 0 0 1-6-6V2.83L11.174-11.334a6 6 0 0 1-2.767-5.055V-58a6 6 0 0 1 6-6h227.187a6 6 0 0 1 6 6v41.612a6 6 0 0 1-2.767 5.055zm90.578 144.225 24.88-16.963c.09-18.124-.167-63.904-11.905-114.522h147.526c-11.713 50.475-11.969 96.324-11.882 114.537l24.859 16.949a3.86 3.86 0 0 1 1.684 3.187v69.901a3.857 3.857 0 0 1-3.857 3.857h-27.655a3.857 3.857 0 0 1-3.857-3.857V188.63h-22.737v31.514a3.857 3.857 0 0 1-3.858 3.857h-52.918a3.857 3.857 0 0 1-3.857-3.857V188.63h-22.737v31.514a3.857 3.857 0 0 1-3.857 3.857H315.43a3.857 3.857 0 0 1-3.857-3.857v-69.901a3.86 3.86 0 0 1 1.683-3.188m71.585-51.906c0 8.372 6.787 15.158 15.159 15.158s15.158-6.787 15.158-15.158V64.831h-30.317zM504.62-22.059 490.956-11.42V4.132a3.857 3.857 0 0 1-3.857 3.857H312.915a3.857 3.857 0 0 1-3.857-3.857V-11.42l-13.677-10.639a3.86 3.86 0 0 1-1.488-3.044v-35.039a3.857 3.857 0 0 1 3.857-3.857h204.5a3.857 3.857 0 0 1 3.857 3.857v35.04a3.86 3.86 0 0 1-1.487 3.043"/><glyph glyph-name="chevron-circle-down" unicode="" horiz-adv-x="512" d="M504 192C504 55 393-56 256-56S8 55 8 192s111 248 248 248 248-111 248-248M273 78.1l135.5 135.5c9.4 9.4 9.4 24.6 0 33.9l-17 17c-9.4 9.4-24.6 9.4-33.9 0L256 162.9 154.4 264.5c-9.4 9.4-24.6 9.4-33.9 0l-17-17c-9.4-9.4-9.4-24.6 0-33.9L239 78.1c9.4-9.4 24.6-9.4 34 0"/><glyph glyph-name="chevron-circle-left" unicode="" horiz-adv-x="512" d="M256-56C119-56 8 55 8 192s111 248 248 248 248-111 248-248S393-56 256-56M142.1 175 277.6 39.5c9.4-9.4 24.6-9.4 33.9 0l17 17c9.4 9.4 9.4 24.6 0 33.9L226.9 192l101.6 101.6c9.4 9.4 9.4 24.6 0 33.9l-17 17c-9.4 9.4-24.6 9.4-33.9 0L142.1 209c-9.4-9.4-9.4-24.6 0-34"/><glyph glyph-name="chevron-circle-right" unicode="" horiz-adv-x="512" d="M256 440c137 0 248-111 248-248S393-56 256-56 8 55 8 192s111 248 248 248m113.9-231L234.4 344.5c-9.4 9.4-24.6 9.4-33.9 0l-17-17c-9.4-9.4-9.4-24.6 0-33.9L285.1 192 183.5 90.4c-9.4-9.4-9.4-24.6 0-33.9l17-17c9.4-9.4 24.6-9.4 33.9 0L369.9 175c9.4 9.4 9.4 24.6 0 34"/><glyph glyph-name="chevron-circle-up" unicode="" horiz-adv-x="512" d="M8 192c0 137 111 248 248 248s248-111 248-248S393-56 256-56 8 55 8 192m231 113.9L103.5 170.4c-9.4-9.4-9.4-24.6 0-33.9l17-17c9.4-9.4 24.6-9.4 33.9 0L256 221.1l101.6-101.6c9.4-9.4 24.6-9.4 33.9 0l17 17c9.4 9.4 9.4 24.6 0 33.9L273 305.9c-9.4 9.4-24.6 9.4-34 0"/><glyph glyph-name="chevron-down" unicode="" horiz-adv-x="448" d="M207.029 66.524 12.686 260.868c-9.373 9.373-9.373 24.569 0 33.941l22.667 22.667c9.357 9.357 24.522 9.375 33.901.04L224 163.495l154.745 154.021c9.379 9.335 24.544 9.317 33.901-.04l22.667-22.667c9.373-9.373 9.373-24.569 0-33.941L240.971 66.524c-9.373-9.372-24.569-9.372-33.942 0"/><glyph glyph-name="chevron-left" unicode="" horiz-adv-x="320" d="m34.52 208.97 194.35 194.34c9.37 9.37 24.57 9.37 33.94 0l22.67-22.67c9.36-9.36 9.37-24.52.04-33.9L131.49 192 285.51 37.25c9.34-9.38 9.32-24.54-.04-33.9L262.8-19.32c-9.37-9.37-24.57-9.37-33.94 0L34.52 175.03c-9.37 9.37-9.37 24.57 0 33.94"/><glyph glyph-name="chevron-right" unicode="" horiz-adv-x="320" d="M285.476 175.029 91.132-19.314c-9.373-9.373-24.569-9.373-33.941 0L34.524 3.353c-9.357 9.357-9.375 24.522-.04 33.901L188.505 192 34.484 346.745c-9.335 9.379-9.317 24.544.04 33.901l22.667 22.667c9.373 9.373 24.569 9.373 33.941 0L285.475 208.97c9.373-9.372 9.373-24.568.001-33.941"/><glyph glyph-name="chevron-up" unicode="" horiz-adv-x="448" d="m240.971 317.476 194.343-194.343c9.373-9.373 9.373-24.569 0-33.941l-22.667-22.667c-9.357-9.357-24.522-9.375-33.901-.04L224 220.505 69.255 66.484c-9.379-9.335-24.544-9.317-33.901.04L12.687 89.191c-9.373 9.373-9.373 24.569 0 33.941L207.03 317.475c9.372 9.373 24.568 9.373 33.941.001"/><glyph glyph-name="child" unicode="" horiz-adv-x="384" d="M120 376c0 39.765 32.235 72 72 72s72-32.235 72-72-32.235-72-72-72-72 32.236-72 72m254.627-1.373c-12.496 12.497-32.758 12.497-45.254 0L242.745 288H141.254l-86.627 86.627c-12.496 12.497-32.758 12.497-45.254 0-12.497-12.497-12.497-32.758 0-45.255L104 234.746V-32c0-17.673 14.327-32 32-32h16c17.673 0 32 14.327 32 32V80h16V-32c0-17.673 14.327-32 32-32h16c17.673 0 32 14.327 32 32v266.746l94.627 94.627c12.497 12.497 12.497 32.757 0 45.254"/><glyph glyph-name="circle-notch" unicode="" horiz-adv-x="512" d="M288 408.944v-16.659c0-10.804 7.281-20.159 17.686-23.066C383.204 347.566 440 276.482 440 192 440 90.311 357.705 8 256 8 154.311 8 72 90.295 72 192c0 84.47 56.786 155.564 134.312 177.219C216.719 372.126 224 381.483 224 392.288v16.648c0 15.709-14.834 27.153-30.046 23.234C86.603 404.518 7.394 306.794 8.003 190.668 8.723 53.616 119.48-56.288 256.534-55.999 393.255-55.711 504 55.212 504 192c0 115.633-79.14 212.779-186.211 240.236-15.111 3.875-29.789-7.692-29.789-23.292"/><glyph glyph-name="circle" unicode="" horiz-adv-x="512" d="M256 440C119 440 8 329 8 192S119-56 256-56 504 55 504 192 393 440 256 440"/><glyph glyph-name="clipboard-check" unicode="" horiz-adv-x="384" d="M336 384h-80c0 35.3-28.7 64-64 64s-64-28.7-64-64H48c-26.5 0-48-21.5-48-48V-16c0-26.5 21.5-48 48-48h288c26.5 0 48 21.5 48 48v352c0 26.5-21.5 48-48 48m-144 24c13.3 0 24-10.7 24-24s-10.7-24-24-24-24 10.7-24 24 10.7 24 24 24m121.2-231.8-143-141.8c-4.7-4.7-12.3-4.6-17 .1l-82.6 83.3c-4.7 4.7-4.6 12.3.1 17L99.1 163c4.7 4.7 12.3 4.6 17-.1l46-46.4 106 105.2c4.7 4.7 12.3 4.6 17-.1l28.2-28.4c4.7-4.8 4.6-12.3-.1-17"/><glyph glyph-name="clipboard-list" unicode="" horiz-adv-x="384" d="M336 384h-80c0 35.3-28.7 64-64 64s-64-28.7-64-64H48c-26.5 0-48-21.5-48-48V-16c0-26.5 21.5-48 48-48h288c26.5 0 48 21.5 48 48v352c0 26.5-21.5 48-48 48M96 24c-13.3 0-24 10.7-24 24s10.7 24 24 24 24-10.7 24-24-10.7-24-24-24m0 96c-13.3 0-24 10.7-24 24s10.7 24 24 24 24-10.7 24-24-10.7-24-24-24m0 96c-13.3 0-24 10.7-24 24s10.7 24 24 24 24-10.7 24-24-10.7-24-24-24m96 192c13.3 0 24-10.7 24-24s-10.7-24-24-24-24 10.7-24 24 10.7 24 24 24M320 40c0-4.4-3.6-8-8-8H168c-4.4 0-8 3.6-8 8v16c0 4.4 3.6 8 8 8h144c4.4 0 8-3.6 8-8zm0 96c0-4.4-3.6-8-8-8H168c-4.4 0-8 3.6-8 8v16c0 4.4 3.6 8 8 8h144c4.4 0 8-3.6 8-8zm0 96c0-4.4-3.6-8-8-8H168c-4.4 0-8 3.6-8 8v16c0 4.4 3.6 8 8 8h144c4.4 0 8-3.6 8-8z"/><glyph glyph-name="clipboard" unicode="" horiz-adv-x="384" d="M384 336V-16c0-26.51-21.49-48-48-48H48C21.49-64 0-42.51 0-16v352c0 26.51 21.49 48 48 48h80c0 35.29 28.71 64 64 64s64-28.71 64-64h80c26.51 0 48-21.49 48-48m-192 72c-13.255 0-24-10.745-24-24s10.745-24 24-24 24 10.745 24 24-10.745 24-24 24m96-114v20a6 6 0 0 1-6 6H102a6 6 0 0 1-6-6v-20a6 6 0 0 1 6-6h180a6 6 0 0 1 6 6"/><glyph glyph-name="clock" unicode="" horiz-adv-x="512" d="M256 440C119 440 8 329 8 192S119-56 256-56 504 55 504 192 393 440 256 440m57.1-350.1L224.9 154c-3.1 2.3-4.9 5.9-4.9 9.7V332c0 6.6 5.4 12 12 12h48c6.6 0 12-5.4 12-12V194.3l63.5-46.2c5.4-3.9 6.5-11.4 2.6-16.8l-28.2-38.8c-3.9-5.3-11.4-6.5-16.8-2.6"/><glyph glyph-name="clone" unicode="" horiz-adv-x="512" d="M464 448c26.51 0 48-21.49 48-48V112c0-26.51-21.49-48-48-48H176c-26.51 0-48 21.49-48 48v288c0 26.51 21.49 48 48 48zM176 32c-44.112 0-80 35.888-80 80v208H48c-26.51 0-48-21.49-48-48V-16c0-26.51 21.49-48 48-48h288c26.51 0 48 21.49 48 48v48z"/><glyph glyph-name="closed-captioning" unicode="" horiz-adv-x="512" d="M464 384H48c-26.5 0-48-21.5-48-48V48C0 21.5 21.5 0 48 0h416c26.5 0 48 21.5 48 48v288c0 26.5-21.5 48-48 48M218.1 160.3c2.8 2.5 7.1 2.1 9.2-.9l19.5-27.7c1.7-2.4 1.5-5.6-.5-7.7-53.6-56.8-172.8-32.1-172.8 67.9 0 97.3 121.7 119.5 172.5 70.1 2.1-2 2.5-3.2 1-5.7l-17.5-30.5c-1.9-3.1-6.2-4-9.1-1.7-40.8 32-94.6 14.9-94.6-31.2.1-48 51.1-70.5 92.3-32.6m190.4 0c2.8 2.5 7.1 2.1 9.2-.9l19.5-27.7c1.7-2.4 1.5-5.6-.5-7.7C383.2 67.1 264 91.9 264 191.9c0 97.3 121.7 119.5 172.5 70.1 2.1-2 2.5-3.2 1-5.7L420 225.8c-1.9-3.1-6.2-4-9.1-1.7-40.8 32-94.6 14.9-94.6-31.2 0-48 51-70.5 92.2-32.6"/><glyph glyph-name="cloud-download-alt" unicode="" horiz-adv-x="640" d="M640 96c0-70.692-57.308-128-128-128H144C64.471-32 0 32.471 0 112c0 62.773 40.171 116.155 96.204 135.867A164 164 0 0 0 96 256c0 88.366 71.634 160 160 160 59.288 0 111.042-32.248 138.684-80.159C409.935 346.046 428.271 352 448 352c53.019 0 96-42.981 96-96 0-12.184-2.275-23.836-6.415-34.56C596.017 209.586 640 157.93 640 96m-246.627 64H328v112c0 8.837-7.164 16-16 16h-48c-8.836 0-16-7.163-16-16V160h-65.373c-14.254 0-21.393-17.234-11.314-27.314L276.686 27.313c6.248-6.248 16.379-6.248 22.627 0l105.373 105.373c10.08 10.08 2.941 27.314-11.313 27.314"/><glyph glyph-name="cloud-upload-alt" unicode="" horiz-adv-x="640" d="M640 96c0-70.692-57.308-128-128-128H144C64.471-32 0 32.471 0 112c0 62.773 40.171 116.155 96.204 135.867A164 164 0 0 0 96 256c0 88.366 71.634 160 160 160 59.288 0 111.042-32.248 138.684-80.159C409.935 346.046 428.271 352 448 352c53.019 0 96-42.981 96-96 0-12.184-2.275-23.836-6.415-34.56C596.017 209.586 640 157.93 640 96m-235.314 91.314L299.314 292.686c-6.248 6.248-16.379 6.248-22.627 0L171.314 187.314c-10.08-10.08-2.941-27.314 11.313-27.314H248V48c0-8.837 7.164-16 16-16h48c8.836 0 16 7.163 16 16v112h65.373c14.254 0 21.393 17.234 11.313 27.314"/><glyph glyph-name="cloud" unicode="" horiz-adv-x="640" d="M537.585 221.44C541.725 232.164 544 243.816 544 256c0 53.019-42.981 96-96 96-19.729 0-38.065-5.954-53.316-16.159C367.042 383.752 315.288 416 256 416c-88.366 0-160-71.634-160-160q.001-4.092.204-8.133C40.171 228.155 0 174.773 0 112 0 32.471 64.471-32 144-32h368c70.692 0 128 57.308 128 128 0 61.93-43.983 113.586-102.415 125.44"/><glyph glyph-name="code-branch" unicode="" horiz-adv-x="384" d="M384 304c0 44.2-35.8 80-80 80s-80-35.8-80-80c0-36.4 24.3-67.1 57.5-76.8-.6-16.1-4.2-28.5-11-36.9-15.4-19.2-49.3-22.4-85.2-25.7-28.2-2.6-57.4-5.4-81.3-16.9v144c32.5 10.2 56 40.5 56 76.3 0 44.2-35.8 80-80 80S0 412.2 0 368c0-35.8 23.5-66.1 56-76.3V92.4C23.5 82.1 0 51.8 0 16c0-44.2 35.8-80 80-80s80 35.8 80 80c0 34-21.2 63.1-51.2 74.6 3.1 5.2 7.8 9.8 14.9 13.4 16.2 8.2 40.4 10.4 66.1 12.8 42.2 3.9 90 8.4 118.2 43.4 14 17.4 21.1 39.8 21.6 67.9 31.6 10.8 54.4 40.7 54.4 75.9M80 384c8.8 0 16-7.2 16-16s-7.2-16-16-16-16 7.2-16 16 7.2 16 16 16M80 0c-8.8 0-16 7.2-16 16s7.2 16 16 16 16-7.2 16-16S88.8 0 80 0m224 320c8.8 0 16-7.2 16-16s-7.2-16-16-16-16 7.2-16 16 7.2 16 16 16"/><glyph glyph-name="code" unicode="" horiz-adv-x="640" d="m278.9-63.5-61 17.7c-6.4 1.8-10 8.5-8.2 14.9l136.5 470.2c1.8 6.4 8.5 10 14.9 8.2l61-17.7c6.4-1.8 10-8.5 8.2-14.9L293.8-55.3c-1.9-6.4-8.5-10.1-14.9-8.2m-114 112.2 43.5 46.4c4.6 4.9 4.3 12.7-.8 17.2L117 192l90.6 79.7c5.1 4.5 5.5 12.3.8 17.2l-43.5 46.4c-4.5 4.8-12.1 5.1-17 .5L3.8 200.8c-5.1-4.7-5.1-12.8 0-17.5L147.9 48.2c4.9-4.6 12.5-4.4 17 .5m327.2-.6 144.1 135.1c5.1 4.7 5.1 12.8 0 17.5L492.1 335.9c-4.8 4.5-12.4 4.3-17-.5L431.6 289c-4.6-4.9-4.3-12.7.8-17.2L523 192l-90.6-79.7c-5.1-4.5-5.5-12.3-.8-17.2l43.5-46.4c4.5-4.9 12.1-5.1 17-.6"/><glyph glyph-name="coffee" unicode="" horiz-adv-x="640" d="M192 64h192c53 0 96 43 96 96h32c70.6 0 128 57.4 128 128s-57.4 128-128 128H120c-13.3 0-24-10.7-24-24V160c0-53 43-96 96-96m320 288c35.3 0 64-28.7 64-64s-28.7-64-64-64h-32v128zm47.7-384H48.3c-47.6 0-61 64-36 64h583.3c25 0 11.8-64-35.9-64"/><glyph glyph-name="cog" unicode="" horiz-adv-x="512" d="m444.788 156.9 42.616-24.599c4.867-2.809 7.126-8.618 5.459-13.985-11.07-35.642-29.97-67.842-54.689-94.586a12.016 12.016 0 0 0-14.832-2.254l-42.584 24.595a191.6 191.6 0 0 0-60.759-35.13v-49.182a12.01 12.01 0 0 0-9.377-11.718c-34.956-7.85-72.499-8.256-109.219-.007-5.49 1.233-9.403 6.096-9.403 11.723v49.184a191.6 191.6 0 0 0-60.759 35.13L88.657 21.476a12.016 12.016 0 0 0-14.832 2.254c-24.718 26.744-43.619 58.944-54.689 94.586-1.667 5.366.592 11.175 5.459 13.985L67.212 156.9a193.5 193.5 0 0 0 0 70.199l-42.616 24.599c-4.867 2.809-7.126 8.618-5.459 13.985 11.07 35.642 29.97 67.842 54.689 94.586a12.016 12.016 0 0 0 14.832 2.254l42.584-24.595a191.6 191.6 0 0 0 60.759 35.13v49.183a12.01 12.01 0 0 0 9.377 11.718c34.956 7.85 72.499 8.256 109.219.007 5.49-1.233 9.403-6.096 9.403-11.723v-49.184a191.6 191.6 0 0 0 60.759-35.13l42.584 24.595a12.016 12.016 0 0 0 14.832-2.254c24.718-26.744 43.619-58.944 54.689-94.586 1.667-5.366-.592-11.175-5.459-13.985L444.788 227.1a193.5 193.5 0 0 0 0-70.2M336 192c0 44.112-35.888 80-80 80s-80-35.888-80-80 35.888-80 80-80 80 35.888 80 80"/><glyph glyph-name="cogs" unicode="" horiz-adv-x="640" d="m512.1 257-8.2-14.3c-3-5.3-9.4-7.5-15.1-5.4-11.8 4.4-22.6 10.7-32.1 18.6-4.6 3.8-5.8 10.5-2.8 15.7l8.2 14.3c-6.9 8-12.3 17.3-15.9 27.4h-16.5c-6 0-11.2 4.3-12.2 10.3-2 12-2.1 24.6 0 37.1 1 6 6.2 10.4 12.2 10.4h16.5c3.6 10.1 9 19.4 15.9 27.4l-8.2 14.3c-3 5.2-1.9 11.9 2.8 15.7 9.5 7.9 20.4 14.2 32.1 18.6 5.7 2.1 12.1-.1 15.1-5.4l8.2-14.3c10.5 1.9 21.2 1.9 31.7 0l8.2 14.3c3 5.3 9.4 7.5 15.1 5.4 11.8-4.4 22.6-10.7 32.1-18.6 4.6-3.8 5.8-10.5 2.8-15.7l-8.2-14.3c6.9-8 12.3-17.3 15.9-27.4h16.5c6 0 11.2-4.3 12.2-10.3 2-12 2.1-24.6 0-37.1-1-6-6.2-10.4-12.2-10.4h-16.5c-3.6-10.1-9-19.4-15.9-27.4l8.2-14.3c3-5.2 1.9-11.9-2.8-15.7-9.5-7.9-20.4-14.2-32.1-18.6-5.7-2.1-12.1.1-15.1 5.4l-8.2 14.3c-10.4-1.9-21.2-1.9-31.7 0m-10.5 58.8c38.5-29.6 82.4 14.3 52.8 52.8-38.5 29.7-82.4-14.3-52.8-52.8M386.3 161.9l33.7-16.8c10.1-5.8 14.5-18.1 10.5-29.1-8.9-24.2-26.4-46.4-42.6-65.8-7.4-8.9-20.2-11.1-30.3-5.3l-29.1 16.8c-16-13.7-34.6-24.6-54.9-31.7V-3.6c0-11.6-8.3-21.6-19.7-23.6-24.6-4.2-50.4-4.4-75.9 0-11.5 2-20 11.9-20 23.6V30c-20.3 7.2-38.9 18-54.9 31.7L74 45c-10-5.8-22.9-3.6-30.3 5.3C27.5 69.7 10.4 91.9 1.5 116c-4 10.9.4 23.2 10.5 29.1l33.3 16.8c-3.9 20.9-3.9 42.4 0 63.4L12 242.2c-10.1 5.8-14.6 18.1-10.5 29 8.9 24.2 26 46.4 42.2 65.8 7.4 8.9 20.2 11.1 30.3 5.3l29.1-16.8c16 13.7 34.6 24.6 54.9 31.7v33.7c0 11.5 8.2 21.5 19.6 23.5 24.6 4.2 50.5 4.4 76 .1 11.5-2 20-11.9 20-23.6v-33.6c20.3-7.2 38.9-18 54.9-31.7l29.1 16.8c10 5.8 22.9 3.6 30.3-5.3 16.2-19.4 33.2-41.6 42.1-65.8 4-10.9.1-23.2-10-29.1l-33.7-16.8c3.9-21 3.9-42.5 0-63.5m-117.6-21.1c59.2 77-28.7 164.9-105.7 105.7-59.2-77 28.7-164.9 105.7-105.7M512.1-41.9l-8.2-14.3c-3-5.3-9.4-7.5-15.1-5.4-11.8 4.4-22.6 10.7-32.1 18.6-4.6 3.8-5.8 10.5-2.8 15.7l8.2 14.3c-6.9 8-12.3 17.3-15.9 27.4h-16.5c-6 0-11.2 4.3-12.2 10.3-2 12-2.1 24.6 0 37.1 1 6 6.2 10.4 12.2 10.4h16.5c3.6 10.1 9 19.4 15.9 27.4l-8.2 14.3c-3 5.2-1.9 11.9 2.8 15.7 9.5 7.9 20.4 14.2 32.1 18.6 5.7 2.1 12.1-.1 15.1-5.4l8.2-14.3c10.5 1.9 21.2 1.9 31.7 0l8.2 14.3c3 5.3 9.4 7.5 15.1 5.4 11.8-4.4 22.6-10.7 32.1-18.6 4.6-3.8 5.8-10.5 2.8-15.7l-8.2-14.3c6.9-8 12.3-17.3 15.9-27.4h16.5c6 0 11.2-4.3 12.2-10.3 2-12 2.1-24.6 0-37.1-1-6-6.2-10.4-12.2-10.4h-16.5c-3.6-10.1-9-19.4-15.9-27.4l8.2-14.3c3-5.2 1.9-11.9-2.8-15.7-9.5-7.9-20.4-14.2-32.1-18.6-5.7-2.1-12.1.1-15.1 5.4l-8.2 14.3c-10.4-1.9-21.2-1.9-31.7 0M501.6 17c38.5-29.6 82.4 14.3 52.8 52.8C515.9 99.4 472 55.5 501.6 17"/><glyph glyph-name="columns" unicode="" horiz-adv-x="512" d="M464 416H48c-26.51 0-48-21.49-48-48V16c0-26.51 21.49-48 48-48h416c26.51 0 48 21.49 48 48v352c0 26.51-21.49 48-48 48M224 32H64v256h160zm224 0H288v256h160z"/><glyph glyph-name="comment-alt" unicode="" horiz-adv-x="576" d="M576 208C576 93 447 0 288 0c-48.3 0-93.9 8.6-133.9 23.8C113.8-7.4 64.3-26.5 11.7-31.9 6.5-32.5 1.5-29.1.2-24.2c-1.3 5 2.7 8.1 6.6 11.8C26.1 6 49.5 20.4 58.7 82.2 21.9 117.1 0 160.7 0 208c0 114.9 129 208 288 208s288-93.1 288-208m-416 48c-26.5 0-48-21.5-48-48s21.5-48 48-48 48 21.5 48 48-21.5 48-48 48m128 0c-26.5 0-48-21.5-48-48s21.5-48 48-48 48 21.5 48 48-21.5 48-48 48m128 0c-26.5 0-48-21.5-48-48s21.5-48 48-48 48 21.5 48 48-21.5 48-48 48"/><glyph glyph-name="comment" unicode="" horiz-adv-x="576" d="M576 208C576 93 447 0 288 0c-48.3 0-93.9 8.6-133.9 23.8C113.8-7.4 64.3-26.5 11.7-31.9 6.5-32.5 1.5-29.1.2-24.2c-1.3 5 2.7 8.1 6.6 11.8C26.1 6 49.5 20.4 58.7 82.2 21.9 117.1 0 160.7 0 208c0 114.9 129 208 288 208s288-93.1 288-208"/><glyph glyph-name="comments" unicode="" horiz-adv-x="576" d="M224 89.143c-37.599 0-73.027 6.763-104.143 18.7C88.482 83.294 49.988 68.335 9.093 64.047a9 9 0 0 0-.89-.047c-3.736 0-7.111 2.498-8.017 6.061-.98 3.961 2.088 6.399 5.126 9.305 15.017 14.439 33.222 25.79 40.342 74.297C17.015 181.114 0 215.378 0 252.571 0 342.84 100.297 416 224 416s224-73.159 224-163.429c-.001-90.332-100.297-163.428-224-163.428M571.067-18.031c-13.944 13.127-30.849 23.446-37.46 67.543 68.808 64.568 52.171 156.935-37.674 207.065.031-1.334.066-2.667.066-4.006 0-122.493-129.583-216.394-284.252-211.222 38.121-30.961 93.989-50.492 156.252-50.492 34.914 0 67.811 6.148 96.704 17 29.134-22.317 64.878-35.916 102.853-39.814 3.786-.395 7.363 1.973 8.27 5.467.911 3.601-1.938 5.817-4.759 8.459"/><glyph glyph-name="compass" unicode="" horiz-adv-x="512" d="M504 192C504 55.033 392.967-56 256-56S8 55.033 8 192s111.033 248 248 248 248-111.033 248-248M307.446 327.156l-102.642-97.779a24 24 0 0 1-6.772-11.729L164.673 79.869c-5.68-23.459 22.777-39.318 39.88-23.024l102.64 97.779a24 24 0 0 1 6.772 11.729l33.359 137.779c5.618 23.198-22.591 39.493-39.878 23.024M256 224c-17.673 0-32-14.327-32-32s14.327-32 32-32 32 14.327 32 32-14.327 32-32 32"/><glyph glyph-name="compress" unicode="" horiz-adv-x="448" d="M436 256H312c-13.3 0-24 10.7-24 24v124c0 6.6 5.4 12 12 12h40c6.6 0 12-5.4 12-12v-84h84c6.6 0 12-5.4 12-12v-40c0-6.6-5.4-12-12-12m-276 24v124c0 6.6-5.4 12-12 12h-40c-6.6 0-12-5.4-12-12v-84H12c-6.6 0-12-5.4-12-12v-40c0-6.6 5.4-12 12-12h124c13.3 0 24 10.7 24 24m0-300v124c0 13.3-10.7 24-24 24H12c-6.6 0-12-5.4-12-12V76c0-6.6 5.4-12 12-12h84v-84c0-6.6 5.4-12 12-12h40c6.6 0 12 5.4 12 12m192 0v84h84c6.6 0 12 5.4 12 12v40c0 6.6-5.4 12-12 12H312c-13.3 0-24-10.7-24-24V-20c0-6.6 5.4-12 12-12h40c6.6 0 12 5.4 12 12"/><glyph glyph-name="copy" unicode="" horiz-adv-x="448" d="M320 0v-40c0-13.255-10.745-24-24-24H24C10.745-64 0-53.255 0-40v368c0 13.255 10.745 24 24 24h72V56c0-30.879 25.121-56 56-56zm0 344v104H152c-13.255 0-24-10.745-24-24V56c0-13.255 10.745-24 24-24h272c13.255 0 24 10.745 24 24v264H344c-13.2 0-24 10.8-24 24m120.971 31.029-65.942 65.942a24 24 0 0 1-16.97 7.029H352v-96h96v6.059a24 24 0 0 1-7.029 16.97"/><glyph glyph-name="copyright" unicode="" horiz-adv-x="512" d="M256 440C119.033 440 8 328.967 8 192S119.033-56 256-56 504 55.033 504 192 392.967 440 256 440M373.134 93.247c-1.592-1.867-39.776-45.731-109.851-45.731-84.692 0-144.484 63.26-144.484 145.567 0 81.303 62.004 143.401 143.762 143.401 66.957 0 101.965-37.315 103.422-38.904a12 12 0 0 0 1.238-14.623l-22.38-34.655c-4.049-6.267-12.774-7.351-18.234-2.295-.233.214-26.529 23.88-61.88 23.88-46.116 0-73.916-33.575-73.916-76.082 0-39.602 25.514-79.692 74.277-79.692 38.697 0 65.28 28.338 65.544 28.625 5.132 5.565 14.059 5.033 18.508-1.053l24.547-33.572a12 12 0 0 0-.553-14.866"/><glyph glyph-name="credit-card" unicode="" horiz-adv-x="576" d="M0 16c0-26.5 21.5-48 48-48h480c26.5 0 48 21.5 48 48v176H0zm192 68c0 6.6 5.4 12 12 12h136c6.6 0 12-5.4 12-12V44c0-6.6-5.4-12-12-12H204c-6.6 0-12 5.4-12 12zM64 84c0 6.6 5.4 12 12 12h72c6.6 0 12-5.4 12-12V44c0-6.6-5.4-12-12-12H76c-6.6 0-12 5.4-12 12zm512 284v-48H0v48c0 26.5 21.5 48 48 48h480c26.5 0 48-21.5 48-48"/><glyph glyph-name="crop" unicode="" horiz-adv-x="512" d="M488 96h-40v242.7l57 57c9.4 9.4 9.4 24.6 0 33.9L493.7 441c-9.4 9.4-24.6 9.4-33.9 0l-57-57H160v40c0 13.3-10.7 24-24 24H88c-13.3 0-24-10.7-24-24v-40H24c-13.3 0-24-10.7-24-24v-48c0-13.3 10.7-24 24-24h40V24C64 10.7 74.7 0 88 0h264v-40c0-13.3 10.7-24 24-24h48c13.3 0 24 10.7 24 24V0h40c13.3 0 24 10.7 24 24v48c0 13.3-10.7 24-24 24M306.7 288 160 141.3V288zM205.3 96 352 242.7V96z"/><glyph glyph-name="crosshairs" unicode="" horiz-adv-x="512" d="M500 224h-30.364C455.724 317.675 381.675 391.724 288 405.636V436c0 6.627-5.373 12-12 12h-40c-6.627 0-12-5.373-12-12v-30.364C130.325 391.724 56.276 317.675 42.364 224H12c-6.627 0-12-5.373-12-12v-40c0-6.627 5.373-12 12-12h30.364C56.276 66.325 130.325-7.724 224-21.636V-52c0-6.627 5.373-12 12-12h40c6.627 0 12 5.373 12 12v30.364C381.675-7.724 455.724 66.325 469.636 160H500c6.627 0 12 5.373 12 12v40c0 6.627-5.373 12-12 12M288 43.366V84c0 6.627-5.373 12-12 12h-40c-6.627 0-12-5.373-12-12V43.366C165.826 55.768 119.783 101.757 107.366 160H148c6.627 0 12 5.373 12 12v40c0 6.627-5.373 12-12 12h-40.634C119.768 282.174 165.757 328.217 224 340.634V300c0-6.627 5.373-12 12-12h40c6.627 0 12 5.373 12 12v40.634C346.174 328.232 392.217 282.243 404.634 224H364c-6.627 0-12-5.373-12-12v-40c0-6.627 5.373-12 12-12h40.634C392.232 101.826 346.243 55.783 288 43.366M288 192c0-17.673-14.327-32-32-32s-32 14.327-32 32 14.327 32 32 32 32-14.327 32-32"/><glyph glyph-name="cube" unicode="" horiz-adv-x="512" d="m239.1 441.7-208-78c-18.7-7-31.1-25-31.1-45V93.6c0-18.2 10.3-34.8 26.5-42.9l208-104c13.5-6.8 29.4-6.8 42.9 0l208 104c16.3 8.1 26.5 24.8 26.5 42.9v225.1c0 20-12.4 37.9-31.1 44.9l-208 78c-10.8 4.2-22.8 4.2-33.7.1m16.9-62.1 192-72v-1.1l-192-78-192 78v1.1zm32-356v148.9l160 65V103.6z"/><glyph glyph-name="cubes" unicode="" horiz-adv-x="512" d="M488.6 197.8 392 234v108.5c0 15-9.3 28.4-23.4 33.7l-100 37.5c-8.1 3.1-17.1 3.1-25.3 0l-100-37.5c-14.1-5.3-23.4-18.7-23.4-33.7V234l-96.6-36.2C9.3 192.5 0 179.1 0 164.1V54c0-13.6 7.7-26.1 19.9-32.2l100-50c10.1-5.1 22.1-5.1 32.2 0l103.9 52 103.9-52c10.1-5.1 22.1-5.1 32.2 0l100 50C504.3 27.9 512 40.4 512 54v110.1c0 15-9.3 28.4-23.4 33.7M358 233.2l-85-31.9v68.2l85 37zM154 343.9l102 38.2 102-38.2v-.6l-102-41.4-102 41.4zm84-291.1-85-42.5v79.1l85 38.8zm0 112-102-41.4-102 41.4v.6l102 38.2 102-38.2zm240-112-85-42.5v79.1l85 38.8zm0 112-102-41.4-102 41.4v.6l102 38.2 102-38.2z"/><glyph glyph-name="cut" unicode="" horiz-adv-x="448" d="M444.485 25.574c4.689-4.689 4.684-12.287 0-16.971-32.804-32.804-85.991-32.804-118.795 0L210.176 124.117l-24.859-24.859C189.63 88.343 192 76.448 192 64c0-53.019-42.981-96-96-96S0 10.981 0 64s42.981 96 96 96c4.536 0 8.995-.322 13.363-.93l32.93 32.93-32.93 32.93A97 97 0 0 0 96 224c-53.019 0-96 42.981-96 96s42.981 96 96 96 96-42.981 96-96c0-12.448-2.37-24.343-6.682-35.258l24.859-24.859L325.69 375.397c32.804 32.804 85.991 32.804 118.795 0 4.684-4.684 4.689-12.282 0-16.971L278.059 192zM96 352c-17.645 0-32-14.355-32-32s14.355-32 32-32 32 14.355 32 32-14.355 32-32 32m0-256c-17.645 0-32-14.355-32-32s14.355-32 32-32 32 14.355 32 32-14.355 32-32 32m112 108c-6.627 0-12-5.373-12-12s5.373-12 12-12 12 5.373 12 12-5.373 12-12 12"/><glyph glyph-name="database" unicode="" horiz-adv-x="448" d="M448 374.857v-45.714C448 288.857 347.667 256 224 256S0 288.857 0 329.143v45.714C0 415.143 100.333 448 224 448s224-32.857 224-73.143M448 272V169.143C448 128.857 347.667 96 224 96S0 128.857 0 169.143V272c48.125-33.143 136.208-48.572 224-48.572S399.874 238.857 448 272m0-160V9.143C448-31.143 347.667-64 224-64S0-31.143 0 9.143V112c48.125-33.143 136.208-48.572 224-48.572S399.874 78.857 448 112"/><glyph glyph-name="deaf" unicode="" horiz-adv-x="512" d="M216 188c0-15.464-12.536-28-28-28s-28 12.536-28 28c0 44.112 35.888 80 80 80s80-35.888 80-80c0-15.464-12.536-28-28-28s-28 12.536-28 28c0 13.234-10.767 24-24 24s-24-10.766-24-24m24 176c-97.047 0-176-78.953-176-176 0-15.464 12.536-28 28-28s28 12.536 28 28c0 66.168 53.832 120 120 120s120-53.832 120-120c0-75.164-71.009-70.311-71.997-143.622L288 44c0-28.673-23.327-52-52-52-15.464 0-28-12.536-28-28s12.536-28 28-28c59.475 0 107.876 48.328 108 107.774.595 34.428 72 48.24 72 144.226 0 97.047-78.953 176-176 176m268.485 52.201L480.2 444.485c-4.687 4.686-12.284 4.686-16.971 0L376.2 357.456c-4.686-4.686-4.686-12.284 0-16.971l28.285-28.285c4.686-4.686 12.284-4.686 16.97 0l87.03 87.029c4.687 4.688 4.687 12.286 0 16.972M168.97 133.255c-4.686 4.686-12.284 4.686-16.97 0L3.515-15.23c-4.686-4.686-4.686-12.284 0-16.971L31.8-60.485c4.687-4.686 12.284-4.686 16.971 0L197.256 88c4.686 4.686 4.686 12.284 0 16.971z"/><glyph glyph-name="desktop" unicode="" horiz-adv-x="576" d="M528 448H48c-26.5 0-48-21.5-48-48V80c0-26.5 21.5-48 48-48h192l-16-48h-72c-13.3 0-24-10.7-24-24s10.7-24 24-24h272c13.3 0 24 10.7 24 24s-10.7 24-24 24h-72l-16 48h192c26.5 0 48 21.5 48 48v320c0 26.5-21.5 48-48 48M512 96H64v288h448z"/><glyph glyph-name="dna" unicode="" horiz-adv-x="448" d="M447.9 430.1c1.1 9.5-6.3 17.8-15.9 17.8l-32.4.1c-8.1 0-14.9-5.9-16-13.9-.7-4.9-1.8-11.1-3.4-18.1H67.9c-1.6 6.9-2.9 13.2-3.5 18.1-1.1 8-7.9 14-16 13.9l-32.3-.1c-9.6 0-17.1-8.3-16-17.8 4.6-37.9 25.6-129 118.9-207.7q26.4 18.6 58.5 35.4c-6.2 4.6-11.4 9.4-17 14.2h127.6c-21.3-18.1-47-35.6-78.7-51.4C37.5 135.1 5.9 1.8.1-46.1-1-55.6 6.4-63.9 16-63.9l32.3-.1c8.1 0 14.9 5.9 16 13.9.7 4.9 1.8 11.1 3.4 18.1h312.4c1.6-7 2.7-13.1 3.4-18.1 1.1-8 7.9-14 16-13.9l32.3.1c9.6 0 17.1 8.3 15.9 17.8-5 42.9-31.1 153.9-159.7 238.1 128.5 84.2 154.7 195.2 159.9 238.1M224 155.6c25.1-13.7 46.4-28.4 64.3-43.6H159.7c17.9 15.2 39.2 30 64.3 43.6M92.9 32c5.8 10.4 12.8 21.1 21 32h220c8.3-10.9 15.3-21.6 21-32zm262.2 320c-5.8-10.4-12.8-21.1-21-32H114.6c-8.3 10.9-15.4 21.6-21.2 32z"/><glyph glyph-name="dollar-sign" unicode="" horiz-adv-x="320" d="M113.411 278.625c0 23.337 21.536 38.417 54.865 38.417 26.726 0 54.116-12.263 76.461-28.333 5.88-4.229 14.13-2.354 17.575 4.017l23.552 43.549c2.649 4.898 1.596 10.991-2.575 14.68-24.281 21.477-59.135 34.09-91.289 37.806V436c0 6.627-5.373 12-12 12h-40c-6.627 0-12-5.373-12-12v-49.832c-58.627-13.29-97.299-55.917-97.299-108.639 0-123.533 184.765-110.81 184.765-169.414 0-19.823-16.311-41.158-52.124-41.158-30.751 0-62.932 15.88-87.848 35.887-5.31 4.264-13.082 3.315-17.159-2.14L27.946 60.037c-3.627-4.854-3.075-11.657 1.302-15.847C53.297 21.17 88.497 2.935 127.999-3.783V-52c0-6.627 5.373-12 12-12h40c6.627 0 12 5.373 12 12v47.438c65.72 10.215 106.176 59.186 106.176 116.516.001 119.688-184.764 103.707-184.764 166.671"/><glyph glyph-name="dolly-flatbed" unicode="" horiz-adv-x="640" d="M208 128h384c8.8 0 16 7.2 16 16v256c0 8.8-7.2 16-16 16H448V288l-48 32-48-32v128H208c-8.8 0-16-7.2-16-16V144c0-8.8 7.2-16 16-16m416-64H128v368c0 8.8-7.2 16-16 16H16c-8.8 0-16-7.2-16-16v-32c0-8.8 7.2-16 16-16h48V16c0-8.8 7.2-16 16-16h82.9c-1.8-5-2.9-10.4-2.9-16 0-26.5 21.5-48 48-48s48 21.5 48 48c0 5.6-1.2 11-2.9 16H451c-1.8-5-2.9-10.4-2.9-16 0-26.5 21.5-48 48-48s48 21.5 48 48c0 5.6-1.2 11-2.9 16H624c8.8 0 16 7.2 16 16v32c0 8.8-7.2 16-16 16"/><glyph glyph-name="dolly" unicode="" horiz-adv-x="576" d="M294.2 170.3c18-5 34.7-13.4 49.5-24.7l161.5 53.8c8.4 2.8 12.9 11.9 10.1 20.2l-60.4 181.2c-2.8 8.4-11.9 12.9-20.2 10.1l-61.1-20.4 33.1-99.4L346 271l-33.1 99.4-61.6-20.5c-8.4-2.8-12.9-11.9-10.1-20.2zm281-48.7L565 152c-2.8 8.4-11.9 12.9-20.2 10.1L331.3 90.9c-17.2 22-43.6 36.4-73.5 37l-99.4 298.2C154 439.2 141.8 448 128 448H16c-8.8 0-16-7.2-16-16v-32c0-8.8 7.2-16 16-16h88.9l92.2-276.7c-26.1-20.4-41.7-53.6-36-90.5 6.1-39.4 37.9-72.3 77.3-79.2 60.2-10.7 112.3 34.8 113.4 92.6l213.3 71.2c8.3 2.8 12.9 11.8 10.1 20.2M256-16c-26.5 0-48 21.5-48 48s21.5 48 48 48 48-21.5 48-48-21.5-48-48-48"/><glyph glyph-name="dot-circle" unicode="" horiz-adv-x="512" d="M256 440C119.033 440 8 328.967 8 192S119.033-56 256-56 504 55.033 504 192 392.967 440 256 440m80-248c0-44.112-35.888-80-80-80s-80 35.888-80 80 35.888 80 80 80 80-35.888 80-80"/><glyph glyph-name="download" unicode="" horiz-adv-x="512" d="M216 448h80c13.3 0 24-10.7 24-24V256h87.7c17.8 0 26.7-21.5 14.1-34.1L269.7 69.7c-7.5-7.5-19.8-7.5-27.3 0L90.1 221.9c-12.6 12.6-3.7 34.1 14.1 34.1H192v168c0 13.3 10.7 24 24 24M512 72V-40c0-13.3-10.7-24-24-24H24C10.7-64 0-53.3 0-40V72c0 13.3 10.7 24 24 24h146.7l49-49c20.1-20.1 52.5-20.1 72.6 0l49 49H488c13.3 0 24-10.7 24-24M388-16c0 11-9 20-20 20s-20-9-20-20 9-20 20-20 20 9 20 20m64 0c0 11-9 20-20 20s-20-9-20-20 9-20 20-20 20 9 20 20"/><glyph glyph-name="edit" unicode="" horiz-adv-x="576" d="m402.6 364.8 90.2-90.2c3.8-3.8 3.8-10 0-13.8L274.4 42.4l-92.8-10.3c-12.4-1.4-22.9 9.1-21.5 21.5l10.3 92.8 218.4 218.4c3.8 3.8 10 3.8 13.8 0m162 22.9-48.8 48.8c-15.2 15.2-39.9 15.2-55.2 0l-35.4-35.4c-3.8-3.8-3.8-10 0-13.8l90.2-90.2c3.8-3.8 10-3.8 13.8 0l35.4 35.4c15.2 15.3 15.2 40 0 55.2M384 101.8V0H64v320h229.8c3.2 0 6.2 1.3 8.5 3.5l40 40c7.6 7.6 2.2 20.5-8.5 20.5H48c-26.5 0-48-21.5-48-48V-16c0-26.5 21.5-48 48-48h352c26.5 0 48 21.5 48 48v157.8c0 10.7-12.9 16-20.5 8.5l-40-40c-2.2-2.3-3.5-5.3-3.5-8.5"/><glyph glyph-name="eject" unicode="" horiz-adv-x="448" d="M448 64V0c0-17.673-14.327-32-32-32H32C14.327-32 0-17.673 0 0v64c0 17.673 14.327 32 32 32h384c17.673 0 32-14.327 32-32M48.053 128h351.886c41.651 0 63.581 49.674 35.383 80.435L259.383 400.442c-19.014 20.743-51.751 20.744-70.767 0L12.67 208.435C-15.475 177.732 6.324 128 48.053 128"/><glyph glyph-name="ellipsis-h" unicode="" horiz-adv-x="512" d="M328 192c0-39.8-32.2-72-72-72s-72 32.2-72 72 32.2 72 72 72 72-32.2 72-72m104 72c-39.8 0-72-32.2-72-72s32.2-72 72-72 72 32.2 72 72-32.2 72-72 72m-352 0c-39.8 0-72-32.2-72-72s32.2-72 72-72 72 32.2 72 72-32.2 72-72 72"/><glyph glyph-name="ellipsis-v" unicode="" horiz-adv-x="192" d="M96 264c39.8 0 72-32.2 72-72s-32.2-72-72-72-72 32.2-72 72 32.2 72 72 72M24 368c0-39.8 32.2-72 72-72s72 32.2 72 72-32.2 72-72 72-72-32.2-72-72m0-352c0-39.8 32.2-72 72-72s72 32.2 72 72-32.2 72-72 72-72-32.2-72-72"/><glyph glyph-name="envelope-open" unicode="" horiz-adv-x="512" d="M512-16c0-26.51-21.49-48-48-48H48C21.49-64 0-42.51 0-16v263.276a48 48 0 0 0 18.387 37.776c24.913 19.529 45.501 35.365 164.2 121.511 16.825 12.267 50.21 41.784 73.413 41.434 23.198.354 56.596-29.172 73.413-41.433 118.687-86.137 139.303-101.995 164.2-121.512A48 48 0 0 0 512 247.276zm-65.666 196.605c-2.563 3.728-7.7 4.595-11.339 1.907-22.845-16.873-55.462-40.705-105.582-77.079-16.825-12.266-50.21-41.781-73.413-41.43-23.211-.344-56.559 29.143-73.413 41.43-50.114 36.37-82.734 60.204-105.582 77.079-3.639 2.688-8.776 1.821-11.339-1.907l-9.072-13.196a8 8 0 0 1 1.839-10.967c22.887-16.899 55.454-40.69 105.303-76.868C184.01 64.793 220.26 31.761 256 32.001c35.724-.242 71.961 32.771 92.263 47.573 49.85 36.179 82.418 59.97 105.303 76.868a8 8 0 0 1 1.839 10.967z"/><glyph glyph-name="envelope-square" unicode="" horiz-adv-x="448" d="M400 416H48c-26.51 0-48-21.49-48-48V16c0-26.51 21.49-48 48-48h352c26.51 0 48 21.49 48 48v352c0 26.51-21.49 48-48 48M178.117 185.896C87.429 251.713 88.353 251.879 64 270.833V296c0 13.255 10.745 24 24 24h272c13.255 0 24-10.745 24-24v-25.167c-24.371-18.969-23.434-19.124-114.117-84.938-10.5-7.655-31.392-26.12-45.883-25.894-14.503-.218-35.367 18.227-45.883 25.895M384 230.225V88c0-13.255-10.745-24-24-24H88c-13.255 0-24 10.745-24 24v142.225c13.958-10.794 33.329-25.236 95.303-70.214 14.162-10.341 37.975-32.145 64.694-32.01 26.887-.134 51.037 22.041 64.72 32.025 61.958 44.965 81.325 59.406 95.283 70.199"/><glyph glyph-name="envelope" unicode="" horiz-adv-x="512" d="M502.3 257.2c3.9 3.1 9.7.2 9.7-4.7V48c0-26.5-21.5-48-48-48H48C21.5 0 0 21.5 0 48v204.4c0 5 5.7 7.8 9.7 4.7 22.4-17.4 52.1-39.5 154.1-113.6 21.1-15.4 56.7-47.8 92.2-47.6 35.7-.3 72 32.8 92.3 47.6 102 74.1 131.6 96.3 154 113.7M256 128c23.2-.4 56.6 29.2 73.4 41.4 132.7 96.3 142.8 104.7 173.4 128.7 5.8 4.5 9.2 11.5 9.2 18.9v19c0 26.5-21.5 48-48 48H48c-26.5 0-48-21.5-48-48v-19c0-7.4 3.4-14.3 9.2-18.9 30.6-23.9 40.7-32.4 173.4-128.7 16.8-12.2 50.2-41.8 73.4-41.4"/><glyph glyph-name="eraser" unicode="" horiz-adv-x="512" d="M497.941 174.059c18.745 18.745 18.745 49.137 0 67.882l-160 160c-18.745 18.745-49.136 18.746-67.883 0l-256-256c-18.745-18.745-18.745-49.137 0-67.882l96-96A48 48 0 0 1 144-32h356c6.627 0 12 5.373 12 12v40c0 6.627-5.373 12-12 12H355.883zm-302.627 62.627L332.687 99.313 265.373 32H150.628l-80 80z"/><glyph glyph-name="euro-sign" unicode="" horiz-adv-x="320" d="M310.706 34.235c-1.314 6.63-7.835 10.872-14.424 9.369-10.692-2.439-27.422-5.413-45.426-5.413-56.763 0-101.929 34.79-121.461 85.449h113.689a12 12 0 0 1 11.708 9.369l6.373 28.36c1.686 7.502-4.019 14.631-11.708 14.631H115.22c-1.21 14.328-1.414 28.287.137 42.245H261.95a12 12 0 0 1 11.723 9.434l6.512 29.755c1.638 7.484-4.061 14.566-11.723 14.566H130.184c20.633 44.991 62.69 75.03 117.619 75.03 14.486 0 28.564-2.25 37.851-4.145 6.216-1.268 12.347 2.498 14.002 8.623l11.991 44.368c1.822 6.741-2.465 13.616-9.326 14.917-12.104 2.295-31.611 5.207-52.686 5.207-97.184 0-175.605-60.252-204.56-144H12c-6.627 0-12-5.373-12-12v-29.755c0-6.627 5.373-12 12-12h21.569c-1.009-13.607-1.181-29.287-.181-42.245H12c-6.627 0-12-5.373-12-12v-28.36c0-6.627 5.373-12 12-12h30.114C67.139 33.308 145.264-32 249.635-32c26.301 0 48.562 4.544 61.101 7.788 6.167 1.595 10.027 7.708 8.788 13.957z"/><glyph glyph-name="exchange-alt" unicode="" horiz-adv-x="512" d="M0 280v16c0 13.255 10.745 24 24 24h360v48c0 21.367 25.899 32.042 40.971 16.971l80-80c9.372-9.373 9.372-24.569 0-33.941l-80-80C409.956 176.018 384 186.544 384 208v48H24c-13.255 0-24 10.745-24 24m488-152H128v48c0 21.314-25.862 32.08-40.971 16.971l-80-80c-9.372-9.373-9.372-24.569 0-33.941l80-80C102.057-15.997 128-5.437 128 16v48h360c13.255 0 24 10.745 24 24v16c0 13.255-10.745 24-24 24"/><glyph glyph-name="exclamation-circle" unicode="" horiz-adv-x="512" d="M504 192C504 55.003 392.957-56 256-56S8 55.003 8 192c0 136.917 111.043 248 248 248s248-111.083 248-248m-248-50c-25.405 0-46-20.595-46-46s20.595-46 46-46 46 20.595 46 46-20.595 46-46 46m-43.673 165.346 7.418-136c.347-6.364 5.609-11.346 11.982-11.346h48.546c6.373 0 11.635 4.982 11.982 11.346l7.418 136c.375 6.874-5.098 12.654-11.982 12.654h-63.383c-6.884 0-12.356-5.78-11.981-12.654"/><glyph glyph-name="exclamation-triangle" unicode="" horiz-adv-x="576" d="M569.517 7.987C587.975-24.007 564.806-64 527.94-64H48.054C11.117-64-11.945-23.945 6.477 7.987l239.946 416.028c18.467 32.009 64.72 31.951 83.154 0zM288 94c-25.405 0-46-20.595-46-46s20.595-46 46-46 46 20.595 46 46-20.595 46-46 46m-43.673 165.346 7.418-136c.347-6.364 5.609-11.346 11.982-11.346h48.546c6.373 0 11.635 4.982 11.982 11.346l7.418 136c.375 6.874-5.098 12.654-11.982 12.654h-63.383c-6.884 0-12.356-5.78-11.981-12.654"/><glyph glyph-name="exclamation" unicode="" horiz-adv-x="192" d="M176 16c0-44.112-35.888-80-80-80S16-28.112 16 16s35.888 80 80 80 80-35.888 80-80M25.26 422.801l13.6-272C39.499 138.028 50.041 128 62.83 128h66.34c12.789 0 23.331 10.028 23.97 22.801l13.6 272C167.425 436.51 156.496 448 142.77 448H49.23c-13.726 0-24.655-11.49-23.97-25.199"/><glyph glyph-name="expand-arrows-alt" unicode="" horiz-adv-x="448.1" d="M448.1 104V-8c0-13.3-10.7-24-24-24h-112c-21.4 0-32.1 25.9-17 41l36.2 36.2L224 152.4 116.8 45.1 153 9c15.1-15.1 4.4-41-17-41H24C10.7-32 0-21.3 0-8v112c0 21.4 25.9 32.1 41 17l36.2-36.2L184.5 192 77.2 299.3 41 263c-15.1-15.1-41-4.4-41 17v112c0 13.3 10.7 24 24 24h112c21.4 0 32.1-25.9 17-41l-36.2-36.2L224 231.6l107.3 107.3-36.2 36.1c-15.1 15.1-4.4 41 17 41h112c13.3 0 24-10.7 24-24V280c0-21.4-25.9-32.1-41-17l-36.2 36.2L263.6 192 370.9 84.7l36.2 36.2c15.1 15.2 41 4.5 41-16.9"/><glyph glyph-name="expand" unicode="" horiz-adv-x="448" d="M0 268v124c0 13.3 10.7 24 24 24h124c6.6 0 12-5.4 12-12v-40c0-6.6-5.4-12-12-12H64v-84c0-6.6-5.4-12-12-12H12c-6.6 0-12 5.4-12 12m288 136v-40c0-6.6 5.4-12 12-12h84v-84c0-6.6 5.4-12 12-12h40c6.6 0 12 5.4 12 12v124c0 13.3-10.7 24-24 24H300c-6.6 0-12-5.4-12-12m148-276h-40c-6.6 0-12-5.4-12-12V32h-84c-6.6 0-12-5.4-12-12v-40c0-6.6 5.4-12 12-12h124c13.3 0 24 10.7 24 24v124c0 6.6-5.4 12-12 12M160-20v40c0 6.6-5.4 12-12 12H64v84c0 6.6-5.4 12-12 12H12c-6.6 0-12-5.4-12-12V-8c0-13.3 10.7-24 24-24h124c6.6 0 12 5.4 12 12"/><glyph glyph-name="external-link-alt" unicode="" horiz-adv-x="576" d="M576 424V296.016c0-21.461-25.96-31.98-40.971-16.971l-35.707 35.709L255.799 71.231c-9.373-9.373-24.568-9.373-33.941 0l-22.627 22.627c-9.373 9.373-9.373 24.569 0 33.941l243.525 243.525-35.703 35.705C391.982 422.1 402.656 448 424.024 448H552c13.255 0 24-10.745 24-24M407.029 177.206l-16-16A24 24 0 0 1 384 144.235V0H64v320h264a24 24 0 0 1 16.97 7.029l16 16C376.089 358.149 365.381 384 344 384H48c-26.51 0-48-21.49-48-48V-16c0-26.51 21.49-48 48-48h352c26.51 0 48 21.49 48 48v176.236c0 21.382-25.852 32.09-40.971 16.97"/><glyph glyph-name="external-link-square-alt" unicode="" horiz-adv-x="448" d="M448 368V16c0-26.51-21.49-48-48-48H48C21.49-32 0-10.51 0 16v352c0 26.51 21.49 48 48 48h352c26.51 0 48-21.49 48-48m-88-16H248.029c-21.313 0-32.08-25.861-16.971-40.971l31.984-31.987L67.515 83.515c-4.686-4.686-4.686-12.284 0-16.971l31.029-31.029c4.687-4.686 12.285-4.686 16.971 0l195.526 195.526 31.988-31.991C358.058 184.023 384 194.575 384 216.021V328c0 13.255-10.745 24-24 24"/><glyph glyph-name="eye-dropper" unicode="" horiz-adv-x="512" d="M177.38 241.36 39.03 103.03A24 24 0 0 1 32 86.06V24L0-32l32-32 56 32h62.06c6.36 0 12.47 2.53 16.97 7.03l138.35 138.33zm225.552-30.47 16.952-16.95c9.37-9.37 9.37-24.57 0-33.94l-40.973-40.97c-9.292-9.312-24.506-9.434-33.94 0L183.028 280.97c-9.37 9.37-9.37 24.57 0 33.94L224 355.88c9.289 9.309 24.502 9.438 33.94 0l16.992-16.99 82.606 82.601c35.19 35.19 92.5 35.5 128 0 40.49-48.08 29.66-98.34 0-128z"/><glyph glyph-name="eye-slash" unicode="" horiz-adv-x="576" d="m286.693 56.016 32.579-46.542A334 334 0 0 0 288 8C168.19 8 63.031 71.949 6.646 167.631a48 48 0 0 0 0 48.739c24.023 40.766 56.913 75.775 96.024 102.537l57.077-81.539C154.736 223.18 152 207.913 152 192c0-74.736 60.135-135.282 134.693-135.984m282.661 111.615c-31.667-53.737-78.747-97.46-135.175-125.475l.011-.015 41.47-59.2c7.6-10.86 4.96-25.82-5.9-33.42l-13.11-9.18c-10.86-7.6-25.82-4.96-33.42 5.9L100.34 401.06c-7.6 10.86-4.96 25.82 5.9 33.42l13.11 9.18c10.86 7.6 25.82 4.96 33.42-5.9l51.038-72.617C230.68 372.224 258.905 376 288 376c119.81 0 224.969-63.949 281.354-159.631a48 48 0 0 0 0-48.738M424 192c0 75.174-60.838 136-136 136-17.939 0-35.056-3.473-50.729-9.772l19.299-27.058c25.869 8.171 55.044 6.163 80.4-7.41h-.03c-23.65 0-42.82-19.17-42.82-42.82 0-23.626 19.147-42.82 42.82-42.82 23.65 0 42.82 19.17 42.82 42.82v.03c18.462-34.49 16.312-77.914-8.25-110.95v-.01l19.314-27.061C411.496 126.8 424 157.926 424 192M262.014 91.273l-77.53 110.757c-5.014-52.387 29.314-98.354 77.53-110.757"/><glyph glyph-name="eye" unicode="" horiz-adv-x="576" d="M569.354 216.369C512.969 312.051 407.81 376 288 376 168.14 376 63.004 312.006 6.646 216.369a48 48 0 0 1 0-48.739C63.031 71.949 168.19 8 288 8c119.86 0 224.996 63.994 281.354 159.631a48 48 0 0 1 0 48.738M288 56c-75.162 0-136 60.827-136 136 0 75.162 60.826 136 136 136 75.162 0 136-60.826 136-136 0-75.162-60.826-136-136-136m104 136c0-57.438-46.562-104-104-104s-104 46.562-104 104c0 17.708 4.431 34.379 12.236 48.973l-.001-.032c0-23.651 19.173-42.823 42.824-42.823s42.824 19.173 42.824 42.823-19.173 42.824-42.824 42.824l-.032-.001C253.621 291.569 270.292 296 288 296c57.438 0 104-46.562 104-104"/><glyph glyph-name="fast-backward" unicode="" horiz-adv-x="512" d="M0 12v360c0 6.6 5.4 12 12 12h40c6.6 0 12-5.4 12-12V220.1l171.5 156.5c20.6 17.1 52.5 2.8 52.5-24.6V220.1l171.5 156.5c20.6 17.1 52.5 2.8 52.5-24.6V32c0-27.4-31.9-41.7-52.5-24.6L288 162.7V32c0-27.4-31.9-41.7-52.5-24.6L64 162.7V12c0-6.6-5.4-12-12-12H12C5.4 0 0 5.4 0 12"/><glyph glyph-name="fast-forward" unicode="" horiz-adv-x="512" d="M512 372V12c0-6.6-5.4-12-12-12h-40c-6.6 0-12 5.4-12 12v151.9L276.5 7.4C255.9-9.8 224 4.6 224 32v131.9L52.5 7.4C31.9-9.8 0 4.6 0 32v320c0 27.4 31.9 41.7 52.5 24.6L224 221.2V352c0 27.4 31.9 41.7 52.5 24.6L448 221.2V372c0 6.6 5.4 12 12 12h40c6.6 0 12-5.4 12-12"/><glyph glyph-name="fax" unicode="" horiz-adv-x="512" d="M128 304V-16c0-26.51-21.49-48-48-48H48C21.49-64 0-42.51 0-16v320c0 26.51 21.49 48 48 48h32c26.51 0 48-21.49 48-48m384-64V-16c0-26.51-21.49-48-48-48H192c-26.51 0-48 21.49-48 48v424c0 22.091 17.909 40 40 40h207.432a40 40 0 0 0 28.284-11.716l48.569-48.569A40 40 0 0 0 480 359.432v-74.174c18.641-6.591 32-24.36 32-45.258m-320 16h240v96h-24c-13.203 0-24 10.797-24 24v24H192zm96-204c0 6.627-5.373 12-12 12h-40c-6.627 0-12-5.373-12-12V12c0-6.627 5.373-12 12-12h40c6.627 0 12 5.373 12 12zm0 128c0 6.627-5.373 12-12 12h-40c-6.627 0-12-5.373-12-12v-40c0-6.627 5.373-12 12-12h40c6.627 0 12 5.373 12 12zM416 52c0 6.627-5.373 12-12 12h-40c-6.627 0-12-5.373-12-12V12c0-6.627 5.373-12 12-12h40c6.627 0 12 5.373 12 12zm0 128c0 6.627-5.373 12-12 12h-40c-6.627 0-12-5.373-12-12v-40c0-6.627 5.373-12 12-12h40c6.627 0 12 5.373 12 12z"/></font>
</defs>
</svg>
