<svg xmlns="http://www.w3.org/2000/svg"><defs><font id="fontawesome-free" horiz-adv-x="640"><font-face font-family="Font Awesome 5 Free" units-per-em="512" ascent="448" descent="64" font-weight="400" font-style="Regular"/><glyph glyph-name="address-book" unicode="" horiz-adv-x="448" d="M436 288c6.627 0 12 5.373 12 12v40c0 6.627-5.373 12-12 12h-20v48c0 26.51-21.49 48-48 48H48c-26.51 0-48-21.49-48-48V-16c0-26.51 21.49-48 48-48h320c26.51 0 48 21.49 48 48v48h20c6.627 0 12 5.373 12 12v40c0 6.627-5.373 12-12 12h-20v64h20c6.627 0 12 5.373 12 12v40c0 6.627-5.373 12-12 12h-20v64zM362-16H54a6 6 0 0 0-6 6v404a6 6 0 0 0 6 6h308a6 6 0 0 0 6-6V-10a6 6 0 0 0-6-6M128 240c0 44.183 35.817 80 80 80s80-35.817 80-80-35.817-80-80-80-80 35.817-80 80m208-133.477V88c0-13.255-10.745-24-24-24H104c-13.255 0-24 10.745-24 24v18.523c0 22.026 14.99 41.225 36.358 46.567l35.657 8.914c29.101-20.932 74.509-26.945 111.97 0l35.657-8.914C321.01 147.748 336 128.548 336 106.523"/><glyph glyph-name="address-card" unicode="" horiz-adv-x="512" d="M464 384H48c-26.51 0-48-21.49-48-48V48C0 21.49 21.49 0 48 0h416c26.51 0 48 21.49 48 48v288c0 26.51-21.49 48-48 48m-6-336H54a6 6 0 0 0-6 6v276a6 6 0 0 0 6 6h404a6 6 0 0 0 6-6V54a6 6 0 0 0-6-6m-54 176H300c-6.627 0-12 5.373-12 12v16c0 6.627 5.373 12 12 12h104c6.627 0 12-5.373 12-12v-16c0-6.627-5.373-12-12-12m0-72H300c-6.627 0-12 5.373-12 12v16c0 6.627 5.373 12 12 12h104c6.627 0 12-5.373 12-12v-16c0-6.627-5.373-12-12-12M176 288c33.137 0 60-26.863 60-60s-26.863-60-60-60-60 26.863-60 60 26.863 60 60 60m68.731-125.183-26.742 6.686c-28.096-20.209-62.152-15.699-83.978 0l-26.742-6.686C91.243 158.811 80 144.411 80 127.892V114c0-9.941 8.059-18 18-18h156c9.941 0 18 8.059 18 18v13.892c0 16.519-11.243 30.919-27.269 34.925"/><glyph glyph-name="arrow-alt-circle-down" unicode="" horiz-adv-x="512" d="M256 440C119 440 8 329 8 192S119-56 256-56 504 55 504 192 393 440 256 440m0-448C145.5-8 56 81.5 56 192s89.5 200 200 200 200-89.5 200-200S366.5-8 256-8m-32 316V192h-67c-10.7 0-16-12.9-8.5-20.5l99-99c4.7-4.7 12.3-4.7 17 0l99 99c7.6 7.6 2.2 20.5-8.5 20.5h-67v116c0 6.6-5.4 12-12 12h-40c-6.6 0-12-5.4-12-12"/><glyph glyph-name="arrow-alt-circle-left" unicode="" horiz-adv-x="512" d="M8 192C8 55 119-56 256-56S504 55 504 192 393 440 256 440 8 329 8 192m448 0C456 81.5 366.5-8 256-8S56 81.5 56 192s89.5 200 200 200 200-89.5 200-200m-72 20v-40c0-6.6-5.4-12-12-12H256V93c0-10.7-12.9-16-20.5-8.5l-99 99c-4.7 4.7-4.7 12.3 0 17l99 99c7.6 7.6 20.5 2.2 20.5-8.5v-67h116c6.6 0 12-5.4 12-12"/><glyph glyph-name="arrow-alt-circle-right" unicode="" horiz-adv-x="512" d="M504 192c0 137-111 248-248 248S8 329 8 192 119-56 256-56 504 55 504 192m-448 0c0 110.5 89.5 200 200 200s200-89.5 200-200S366.5-8 256-8 56 81.5 56 192m72-20v40c0 6.6 5.4 12 12 12h116v67c0 10.7 12.9 16 20.5 8.5l99-99c4.7-4.7 4.7-12.3 0-17l-99-99c-7.6-7.6-20.5-2.2-20.5 8.5v67H140c-6.6 0-12 5.4-12 12"/><glyph glyph-name="arrow-alt-circle-up" unicode="" horiz-adv-x="512" d="M256-56c137 0 248 111 248 248S393 440 256 440 8 329 8 192 119-56 256-56m0 448c110.5 0 200-89.5 200-200S366.5-8 256-8 56 81.5 56 192s89.5 200 200 200m20-328h-40c-6.6 0-12 5.4-12 12v116h-67c-10.7 0-16 12.9-8.5 20.5l99 99c4.7 4.7 12.3 4.7 17 0l99-99c7.6-7.6 2.2-20.5-8.5-20.5h-67V76c0-6.6-5.4-12-12-12"/><glyph glyph-name="bell-slash" unicode="" horiz-adv-x="576" d="M130.9 48c-16.762 0-25.135 20.39-13.334 32.191 25.226 25.226 46.094 49.338 50.649 121.48l-46.777 41.274a169 169 0 0 1-.296-9.802c0-81.933-17.551-99.292-34.543-116.078C38.504 69.559 73.726 0 130.919 0H224c0-35.346 28.654-64 64-64s64 28.654 64 64h44.777l-54.4 48zM288-24c-13.234 0-24 10.766-24 24h48c0-13.234-10.766-24-24-24m283.867-.553-67.931 59.571c13.104 24.118 11.524 56.318-14.532 82.042-16.989 16.785-34.546 34.143-34.546 116.083 0 83.026-60.958 152.074-140.467 164.762A31.85 31.85 0 0 1 320 416c0 17.673-14.327 32-32 32s-32-14.327-32-32a31.85 31.85 0 0 1 5.609-18.095c-41.471-6.618-77.891-28.571-103.249-59.841L36.459 444.963c-5.058 4.436-12.777 3.956-17.24-1.071L3.056 425.687c-4.463-5.027-3.981-12.699 1.078-17.134L539.542-60.963c5.058-4.436 12.777-3.956 17.24 1.071l16.163 18.205c4.462 5.027 3.98 12.699-1.078 17.134M288 352c65.538 0 118.857-53.319 118.857-118.857 0-97.65 23.221-124.574 51.568-152.952 2.908-2.908 4.573-6.328 5.209-9.832L194.482 306.388C216.258 334.133 250.075 352 288 352"/><glyph glyph-name="bell" unicode="" horiz-adv-x="448" d="M425.403 117.061c-16.989 16.785-34.546 34.143-34.546 116.083 0 83.026-60.958 152.074-140.467 164.762A31.84 31.84 0 0 1 256 416c0 17.673-14.327 32-32 32s-32-14.327-32-32a31.85 31.85 0 0 1 5.609-18.095c-79.508-12.688-140.466-81.736-140.466-164.762 0-81.933-17.551-99.292-34.543-116.078C-25.496 69.559 9.726 0 66.919 0H160c0-35.346 28.654-64 64-64s64 28.654 64 64h93.08c57.19 0 92.415 69.583 44.323 117.061M224-24c-13.234 0-24 10.766-24 24h48c0-13.234-10.766-24-24-24m157.092 72H66.9c-16.762 0-25.135 20.39-13.334 32.191 28.585 28.585 51.577 55.724 51.577 152.952C105.143 298.681 158.462 352 224 352s118.857-53.319 118.857-118.857c0-97.65 23.221-124.574 51.568-152.952C406.278 68.339 397.783 48 381.092 48"/><glyph glyph-name="bookmark" unicode="" horiz-adv-x="384" d="M336 448H48c-26.51 0-48-21.49-48-48V-64L192 48 384-64v464c0 26.51-21.49 48-48 48m0-428.43-144 84-144-84V394a6 6 0 0 0 6 6h276c3.314 0 6-2.683 6-5.996z"/><glyph glyph-name="building" unicode="" horiz-adv-x="448" d="M128 300v40c0 6.6 5.4 12 12 12h40c6.6 0 12-5.4 12-12v-40c0-6.6-5.4-12-12-12h-40c-6.6 0-12 5.4-12 12m140-12h40c6.6 0 12 5.4 12 12v40c0 6.6-5.4 12-12 12h-40c-6.6 0-12-5.4-12-12v-40c0-6.6 5.4-12 12-12m-128-96h40c6.6 0 12 5.4 12 12v40c0 6.6-5.4 12-12 12h-40c-6.6 0-12-5.4-12-12v-40c0-6.6 5.4-12 12-12m128 0h40c6.6 0 12 5.4 12 12v40c0 6.6-5.4 12-12 12h-40c-6.6 0-12-5.4-12-12v-40c0-6.6 5.4-12 12-12m-76-84v40c0 6.6-5.4 12-12 12h-40c-6.6 0-12-5.4-12-12v-40c0-6.6 5.4-12 12-12h40c6.6 0 12 5.4 12 12m76-12h40c6.6 0 12 5.4 12 12v40c0 6.6-5.4 12-12 12h-40c-6.6 0-12-5.4-12-12v-40c0-6.6 5.4-12 12-12M448-28v-36H0v36c0 6.6 5.4 12 12 12h19.5v440c0 13.3 10.7 24 24 24h337c13.3 0 24-10.7 24-24V-16H436c6.6 0 12-5.4 12-12M79.5-15H192v67c0 6.6 5.4 12 12 12h40c6.6 0 12-5.4 12-12v-67h112.5v414L80 400z"/><glyph glyph-name="calendar-alt" unicode="" horiz-adv-x="448" d="M148 160h-40c-6.6 0-12 5.4-12 12v40c0 6.6 5.4 12 12 12h40c6.6 0 12-5.4 12-12v-40c0-6.6-5.4-12-12-12m108 12v40c0 6.6-5.4 12-12 12h-40c-6.6 0-12-5.4-12-12v-40c0-6.6 5.4-12 12-12h40c6.6 0 12 5.4 12 12m96 0v40c0 6.6-5.4 12-12 12h-40c-6.6 0-12-5.4-12-12v-40c0-6.6 5.4-12 12-12h40c6.6 0 12 5.4 12 12m-96-96v40c0 6.6-5.4 12-12 12h-40c-6.6 0-12-5.4-12-12V76c0-6.6 5.4-12 12-12h40c6.6 0 12 5.4 12 12m-96 0v40c0 6.6-5.4 12-12 12h-40c-6.6 0-12-5.4-12-12V76c0-6.6 5.4-12 12-12h40c6.6 0 12 5.4 12 12m192 0v40c0 6.6-5.4 12-12 12h-40c-6.6 0-12-5.4-12-12V76c0-6.6 5.4-12 12-12h40c6.6 0 12 5.4 12 12m96 260V-16c0-26.5-21.5-48-48-48H48C21.5-64 0-42.5 0-16v352c0 26.5 21.5 48 48 48h48v52c0 6.6 5.4 12 12 12h40c6.6 0 12-5.4 12-12v-52h128v52c0 6.6 5.4 12 12 12h40c6.6 0 12-5.4 12-12v-52h48c26.5 0 48-21.5 48-48M400-10v298H48V-10c0-3.3 2.7-6 6-6h340c3.3 0 6 2.7 6 6"/><glyph glyph-name="calendar-check" unicode="" horiz-adv-x="448" d="M400 384h-48v52c0 6.627-5.373 12-12 12h-40c-6.627 0-12-5.373-12-12v-52H160v52c0 6.627-5.373 12-12 12h-40c-6.627 0-12-5.373-12-12v-52H48c-26.51 0-48-21.49-48-48V-16c0-26.51 21.49-48 48-48h352c26.51 0 48 21.49 48 48v352c0 26.51-21.49 48-48 48m-6-400H54a6 6 0 0 0-6 6v298h352V-10a6 6 0 0 0-6-6m-52.849 200.65L198.842 43.481c-4.705-4.667-12.303-4.637-16.971.068l-75.091 75.699c-4.667 4.705-4.637 12.303.068 16.971l22.719 22.536c4.705 4.667 12.303 4.637 16.97-.069l44.104-44.461 111.072 110.181c4.705 4.667 12.303 4.637 16.971-.068l22.536-22.718c4.667-4.705 4.636-12.303-.069-16.97"/><glyph glyph-name="calendar-minus" unicode="" horiz-adv-x="448" d="M124 120c-6.6 0-12 5.4-12 12v24c0 6.6 5.4 12 12 12h200c6.6 0 12-5.4 12-12v-24c0-6.6-5.4-12-12-12zm324 216V-16c0-26.5-21.5-48-48-48H48C21.5-64 0-42.5 0-16v352c0 26.5 21.5 48 48 48h48v52c0 6.6 5.4 12 12 12h40c6.6 0 12-5.4 12-12v-52h128v52c0 6.6 5.4 12 12 12h40c6.6 0 12-5.4 12-12v-52h48c26.5 0 48-21.5 48-48M400-10v298H48V-10c0-3.3 2.7-6 6-6h340c3.3 0 6 2.7 6 6"/><glyph glyph-name="calendar-plus" unicode="" horiz-adv-x="448" d="M336 156v-24c0-6.6-5.4-12-12-12h-76V44c0-6.6-5.4-12-12-12h-24c-6.6 0-12 5.4-12 12v76h-76c-6.6 0-12 5.4-12 12v24c0 6.6 5.4 12 12 12h76v76c0 6.6 5.4 12 12 12h24c6.6 0 12-5.4 12-12v-76h76c6.6 0 12-5.4 12-12m112 180V-16c0-26.5-21.5-48-48-48H48C21.5-64 0-42.5 0-16v352c0 26.5 21.5 48 48 48h48v52c0 6.6 5.4 12 12 12h40c6.6 0 12-5.4 12-12v-52h128v52c0 6.6 5.4 12 12 12h40c6.6 0 12-5.4 12-12v-52h48c26.5 0 48-21.5 48-48M400-10v298H48V-10c0-3.3 2.7-6 6-6h340c3.3 0 6 2.7 6 6"/><glyph glyph-name="calendar-times" unicode="" horiz-adv-x="448" d="m311.7 73.3-17-17c-4.7-4.7-12.3-4.7-17 0L224 110.1l-53.7-53.7c-4.7-4.7-12.3-4.7-17 0l-17 17c-4.7 4.7-4.7 12.3 0 17l53.7 53.7-53.7 53.7c-4.7 4.7-4.7 12.3 0 17l17 17c4.7 4.7 12.3 4.7 17 0l53.7-53.7 53.7 53.7c4.7 4.7 12.3 4.7 17 0l17-17c4.7-4.7 4.7-12.3 0-17L257.9 144l53.7-53.7c4.8-4.7 4.8-12.3.1-17M448 336V-16c0-26.5-21.5-48-48-48H48C21.5-64 0-42.5 0-16v352c0 26.5 21.5 48 48 48h48v52c0 6.6 5.4 12 12 12h40c6.6 0 12-5.4 12-12v-52h128v52c0 6.6 5.4 12 12 12h40c6.6 0 12-5.4 12-12v-52h48c26.5 0 48-21.5 48-48M400-10v298H48V-10c0-3.3 2.7-6 6-6h340c3.3 0 6 2.7 6 6"/><glyph glyph-name="calendar" unicode="" horiz-adv-x="448" d="M400 384h-48v52c0 6.6-5.4 12-12 12h-40c-6.6 0-12-5.4-12-12v-52H160v52c0 6.6-5.4 12-12 12h-40c-6.6 0-12-5.4-12-12v-52H48c-26.5 0-48-21.5-48-48V-16c0-26.5 21.5-48 48-48h352c26.5 0 48 21.5 48 48v352c0 26.5-21.5 48-48 48m-6-400H54c-3.3 0-6 2.7-6 6v298h352V-10c0-3.3-2.7-6-6-6"/><glyph glyph-name="caret-square-down" unicode="" horiz-adv-x="448" d="M125.1 240h197.8c10.7 0 16.1-13 8.5-20.5l-98.9-98.3c-4.7-4.7-12.2-4.7-16.9 0l-98.9 98.3c-7.7 7.5-2.3 20.5 8.4 20.5M448 368V16c0-26.5-21.5-48-48-48H48C21.5-32 0-10.5 0 16v352c0 26.5 21.5 48 48 48h352c26.5 0 48-21.5 48-48M400 22v340c0 3.3-2.7 6-6 6H54c-3.3 0-6-2.7-6-6V22c0-3.3 2.7-6 6-6h340c3.3 0 6 2.7 6 6"/><glyph glyph-name="caret-square-left" unicode="" horiz-adv-x="448" d="M272 290.9V93.1c0-10.7-13-16.1-20.5-8.5l-98.3 98.9c-4.7 4.7-4.7 12.2 0 16.9l98.3 98.9c7.5 7.7 20.5 2.3 20.5-8.4M448 368V16c0-26.5-21.5-48-48-48H48C21.5-32 0-10.5 0 16v352c0 26.5 21.5 48 48 48h352c26.5 0 48-21.5 48-48M400 22v340c0 3.3-2.7 6-6 6H54c-3.3 0-6-2.7-6-6V22c0-3.3 2.7-6 6-6h340c3.3 0 6 2.7 6 6"/><glyph glyph-name="caret-square-right" unicode="" horiz-adv-x="448" d="M176 93.1v197.8c0 10.7 13 16.1 20.5 8.5l98.3-98.9c4.7-4.7 4.7-12.2 0-16.9l-98.3-98.9C189 77 176 82.4 176 93.1M448 368V16c0-26.5-21.5-48-48-48H48C21.5-32 0-10.5 0 16v352c0 26.5 21.5 48 48 48h352c26.5 0 48-21.5 48-48M400 22v340c0 3.3-2.7 6-6 6H54c-3.3 0-6-2.7-6-6V22c0-3.3 2.7-6 6-6h340c3.3 0 6 2.7 6 6"/><glyph glyph-name="caret-square-up" unicode="" horiz-adv-x="448" d="M322.9 144H125.1c-10.7 0-16.1 13-8.5 20.5l98.9 98.3c4.7 4.7 12.2 4.7 16.9 0l98.9-98.3c7.7-7.5 2.3-20.5-8.4-20.5M448 368V16c0-26.5-21.5-48-48-48H48C21.5-32 0-10.5 0 16v352c0 26.5 21.5 48 48 48h352c26.5 0 48-21.5 48-48M400 22v340c0 3.3-2.7 6-6 6H54c-3.3 0-6-2.7-6-6V22c0-3.3 2.7-6 6-6h340c3.3 0 6 2.7 6 6"/><glyph glyph-name="chart-bar" unicode="" horiz-adv-x="512" d="M500 48c6.6 0 12-5.4 12-12V12c0-6.6-5.4-12-12-12H12C5.4 0 0 5.4 0 12v360c0 6.6 5.4 12 12 12h24c6.6 0 12-5.4 12-12V48zm-356 60v72c0 6.6-5.4 12-12 12h-24c-6.6 0-12-5.4-12-12v-72c0-6.6 5.4-12 12-12h24c6.6 0 12 5.4 12 12m96 0v200c0 6.6-5.4 12-12 12h-24c-6.6 0-12-5.4-12-12V108c0-6.6 5.4-12 12-12h24c6.6 0 12 5.4 12 12m96 0v136c0 6.6-5.4 12-12 12h-24c-6.6 0-12-5.4-12-12V108c0-6.6 5.4-12 12-12h24c6.6 0 12 5.4 12 12m96 0v232c0 6.6-5.4 12-12 12h-24c-6.6 0-12-5.4-12-12V108c0-6.6 5.4-12 12-12h24c6.6 0 12 5.4 12 12"/><glyph glyph-name="check-circle" unicode="" horiz-adv-x="512" d="M256 440C119.033 440 8 328.967 8 192S119.033-56 256-56 504 55.033 504 192 392.967 440 256 440m0-48c110.532 0 200-89.451 200-200C456 81.468 366.549-8 256-8 145.468-8 56 81.451 56 192c0 110.532 89.451 200 200 200m140.204-130.267-22.536 22.718c-4.667 4.705-12.265 4.736-16.97.068L215.346 144.303l-59.792 60.277c-4.667 4.705-12.265 4.736-16.97.069l-22.719-22.536c-4.705-4.667-4.736-12.265-.068-16.971l90.781-91.516c4.667-4.705 12.265-4.736 16.97-.068l172.589 171.204c4.704 4.668 4.734 12.266.067 16.971"/><glyph glyph-name="check-square" unicode="" horiz-adv-x="448" d="M400 416H48c-26.51 0-48-21.49-48-48V16c0-26.51 21.49-48 48-48h352c26.51 0 48 21.49 48 48v352c0 26.51-21.49 48-48 48m0-400H48v352h352zm-35.864 241.724L191.547 86.52c-4.705-4.667-12.303-4.637-16.97.068l-90.781 91.516c-4.667 4.705-4.637 12.303.069 16.971l22.719 22.536c4.705 4.667 12.303 4.637 16.97-.069l59.792-60.277 141.352 140.216c4.705 4.667 12.303 4.637 16.97-.068l22.536-22.718c4.667-4.706 4.637-12.304-.068-16.971"/><glyph glyph-name="circle" unicode="" horiz-adv-x="512" d="M256 440C119 440 8 329 8 192S119-56 256-56 504 55 504 192 393 440 256 440m0-448C145.5-8 56 81.5 56 192s89.5 200 200 200 200-89.5 200-200S366.5-8 256-8"/><glyph glyph-name="clipboard" unicode="" horiz-adv-x="384" d="M336 384h-80c0 35.29-28.71 64-64 64s-64-28.71-64-64H48c-26.51 0-48-21.49-48-48V-16c0-26.51 21.49-48 48-48h288c26.51 0 48 21.49 48 48v352c0 26.51-21.49 48-48 48m-6-400H54a6 6 0 0 0-6 6v340a6 6 0 0 0 6 6h42v-36c0-6.627 5.373-12 12-12h168c6.627 0 12 5.373 12 12v36h42a6 6 0 0 0 6-6V-10a6 6 0 0 0-6-6M192 408c13.255 0 24-10.745 24-24s-10.745-24-24-24-24 10.745-24 24 10.745 24 24 24"/><glyph glyph-name="clock" unicode="" horiz-adv-x="512" d="M256 440C119 440 8 329 8 192S119-56 256-56 504 55 504 192 393 440 256 440m0-448C145.5-8 56 81.5 56 192s89.5 200 200 200 200-89.5 200-200S366.5-8 256-8m61.8 104.4-84.9 61.7c-3.1 2.3-4.9 5.9-4.9 9.7V332c0 6.6 5.4 12 12 12h32c6.6 0 12-5.4 12-12V190.3l66.8-48.6c5.4-3.9 6.5-11.4 2.6-16.8L334.6 99c-3.9-5.3-11.4-6.5-16.8-2.6"/><glyph glyph-name="clone" unicode="" horiz-adv-x="512" d="M464 448H144c-26.51 0-48-21.49-48-48v-48H48c-26.51 0-48-21.49-48-48V-16c0-26.51 21.49-48 48-48h320c26.51 0 48 21.49 48 48v48h48c26.51 0 48 21.49 48 48v320c0 26.51-21.49 48-48 48M362-16H54a6 6 0 0 0-6 6v308a6 6 0 0 0 6 6h42V80c0-26.51 21.49-48 48-48h224v-42a6 6 0 0 0-6-6m96 96H150a6 6 0 0 0-6 6v308a6 6 0 0 0 6 6h308a6 6 0 0 0 6-6V86a6 6 0 0 0-6-6"/><glyph glyph-name="closed-captioning" unicode="" horiz-adv-x="512" d="M464 384H48c-26.5 0-48-21.5-48-48V48C0 21.5 21.5 0 48 0h416c26.5 0 48 21.5 48 48v288c0 26.5-21.5 48-48 48m-6-336H54c-3.3 0-6 2.7-6 6v276c0 3.3 2.7 6 6 6h404c3.3 0 6-2.7 6-6V54c0-3.3-2.7-6-6-6m-211.1 85.7c1.7-2.4 1.5-5.6-.5-7.7-53.6-56.8-172.8-32.1-172.8 67.9 0 97.3 121.7 119.5 172.5 70.1 2.1-2 2.5-3.2 1-5.7l-17.5-30.5c-1.9-3.1-6.2-4-9.1-1.7-40.8 32-94.6 14.9-94.6-31.2 0-48 51-70.5 92.2-32.6 2.8 2.5 7.1 2.1 9.2-.9zm190.4 0c1.7-2.4 1.5-5.6-.5-7.7C383.2 69.1 264 93.9 264 193.9c0 97.3 121.7 119.5 172.5 70.1 2.1-2 2.5-3.2 1-5.7L420 227.8c-1.9-3.1-6.2-4-9.1-1.7-40.8 32-94.6 14.9-94.6-31.2 0-48 51-70.5 92.2-32.6 2.8 2.5 7.1 2.1 9.2-.9z"/><glyph glyph-name="comment-alt" unicode="" horiz-adv-x="576" d="M288 416C129 416 0 322.9 0 208c0-49.3 23.7-94.5 63.3-130.2-8.7-23.3-22.1-32.7-37.1-43.1C15.1 27-6 15 1.6-8.5c5.1-15.4 20.9-24.7 38.1-23.3 57.7 4.6 111.2 19.2 157 42.5C225.4 3.8 256.1 0 287.9 0c159.1 0 288 93 288 208C576 322.9 447.1 416 288 416m0-368c-32.5 0-65.4 4.4-97.3 14C158.4 43 112 16 56 8c32 24 56.8 61.6 61.2 88.4C79.1 122.4 48 161.3 48 208c0 70.9 86.3 160 240 160s240-89.1 240-160c0-71-86.3-160-240-160m-64 160c0-26.5-21.5-48-48-48s-48 21.5-48 48 21.5 48 48 48 48-21.5 48-48m112 0c0-26.5-21.5-48-48-48s-48 21.5-48 48 21.5 48 48 48 48-21.5 48-48m112 0c0-26.5-21.5-48-48-48s-48 21.5-48 48 21.5 48 48 48 48-21.5 48-48"/><glyph glyph-name="comment" unicode="" horiz-adv-x="576" d="M288 416C129 416 0 322.9 0 208c0-49.3 23.7-94.5 63.3-130.2-8.7-23.3-22.1-32.7-37.1-43.1C15.1 27-6 15 1.6-8.5c5.1-15.4 20.9-24.7 38.1-23.3 57.7 4.6 111.2 19.2 157 42.5C225.4 3.8 256.1 0 287.9 0c159.1 0 288 93 288 208C576 322.9 447.1 416 288 416m0-368c-32.5 0-65.4 4.4-97.3 14C158.4 43 112 16 56 8c32 24 56.8 61.6 61.2 88.4C79.1 122.4 48 161.3 48 208c0 70.9 86.3 160 240 160s240-89.1 240-160c0-71-86.3-160-240-160"/><glyph glyph-name="comments" unicode="" horiz-adv-x="576" d="M574.507 4.14C569.086-17.121 549.937-32 527.996-32c-32.246 0-66.511 9.99-102.1 29.734-50.64-11.626-109.151-7.877-157.96 13.437 41.144 2.919 80.361 12.339 116.331 28.705 16.322 1.22 32.674 4.32 48.631 9.593C454.404 35.635 490.663 16 527.996 16c-32 17.455-43.219 38.958-46.159 58.502 25.443 18.848 46.159 47.183 46.159 81.135 0 10.495-2.383 21.536-7.041 32.467 7.405 25.93 8.656 50.194 5.185 73.938 32.164-30.461 49.856-69.128 49.856-106.405 0-33.893-12.913-65.047-34.976-91.119 2.653-2.038 5.924-4.176 9.962-6.378 19.261-10.508 28.947-32.739 23.525-54M240.002 368c-122.934 0-191.998-72.877-191.998-130.909 0-38.196 24.859-70.072 55.391-91.276C99.868 123.827 86.404 99.636 48.004 80c44.8 0 88.31 22.089 114.119 37.653 25.52-7.906 51.883-11.471 77.879-11.471C362.998 106.182 432 179.024 432 237.091 432 295.118 362.943 368 240.002 368m0 48C390.193 416 480 321.974 480 237.091c0-22.745-6.506-46.394-18.816-68.391-11.878-21.226-28.539-40.294-49.523-56.674-21.593-16.857-46.798-30.045-74.913-39.197-29.855-9.719-62.405-14.646-96.746-14.646-24.449 0-48.34 2.687-71.292 8.004C126.311 43.488 85.785 32 48.004 32 25.824 32 6.532 47.197 1.339 68.761c-5.194 21.563 5.064 43.878 24.811 53.976 7.663 3.918 13.324 7.737 17.519 11.294-7.393 7.829-13.952 16.124-19.634 24.844C8.09 183.345.005 209.661.005 237.091.005 321.741 89.508 416 240.002 416"/><glyph glyph-name="compass" unicode="" horiz-adv-x="512" d="M256 440C119.033 440 8 328.967 8 192S119.033-56 256-56 504 55.033 504 192 392.967 440 256 440m0-448C145.468-8 56 81.451 56 192c0 110.531 89.451 200 200 200 110.532 0 200-89.451 200-200C456 81.468 366.549-8 256-8m91.326 312.131-33.359-137.779a24 24 0 0 0-6.772-11.729l-102.64-97.779c-17.104-16.293-45.56-.434-39.88 23.024l33.359 137.779a24 24 0 0 0 6.772 11.729l102.642 97.779c17.285 16.47 45.494.175 39.878-23.024M256 224c-17.673 0-32-14.327-32-32s14.327-32 32-32 32 14.327 32 32-14.327 32-32 32"/><glyph glyph-name="copy" unicode="" horiz-adv-x="448" d="m433.941 382.059-51.882 51.882A48 48 0 0 1 348.118 448H176c-26.51 0-48-21.49-48-48v-48H48c-26.51 0-48-21.49-48-48V-16c0-26.51 21.49-48 48-48h224c26.51 0 48 21.49 48 48v48h80c26.51 0 48 21.49 48 48v268.118a48 48 0 0 1-14.059 33.941M266-16H54a6 6 0 0 0-6 6v308a6 6 0 0 0 6 6h74V80c0-26.51 21.49-48 48-48h96v-42a6 6 0 0 0-6-6m128 96H182a6 6 0 0 0-6 6v308a6 6 0 0 0 6 6h106v-88c0-13.255 10.745-24 24-24h88V86a6 6 0 0 0-6-6m6 256h-64v64h9.632a6 6 0 0 0 4.243-1.757l48.368-48.368a6 6 0 0 0 1.757-4.243z"/><glyph glyph-name="copyright" unicode="" horiz-adv-x="512" d="M256 440C119.033 440 8 328.967 8 192S119.033-56 256-56 504 55.033 504 192 392.967 440 256 440m0-448C145.468-8 56 81.451 56 192c0 110.531 89.451 200 200 200 110.532 0 200-89.451 200-200C456 81.468 366.549-8 256-8M363.351 93.064c-9.614-9.712-45.53-41.396-104.065-41.396-82.43 0-140.484 61.425-140.484 141.567 0 79.152 60.275 139.401 139.762 139.401 55.531 0 88.738-26.62 97.593-34.779a11.965 11.965 0 0 0 1.936-15.322l-18.155-28.113c-3.841-5.95-11.966-7.282-17.499-2.921-8.595 6.776-31.814 22.538-61.708 22.538-48.303 0-77.916-35.33-77.916-80.082 0-41.589 26.888-83.692 78.277-83.692 32.657 0 56.843 19.039 65.726 27.225 5.27 4.857 13.596 4.039 17.82-1.738l19.865-27.17a11.95 11.95 0 0 0-1.152-15.518"/><glyph glyph-name="credit-card" unicode="" horiz-adv-x="576" d="M527.9 416H48.1C21.5 416 0 394.5 0 368V16c0-26.5 21.5-48 48.1-48h479.8c26.6 0 48.1 21.5 48.1 48v352c0 26.5-21.5 48-48.1 48M54.1 368h467.8c3.3 0 6-2.7 6-6v-42H48.1v42c0 3.3 2.7 6 6 6M521.9 16H54.1c-3.3 0-6 2.7-6 6v170h479.8V22c0-3.3-2.7-6-6-6M192 116V76c0-6.6-5.4-12-12-12h-72c-6.6 0-12 5.4-12 12v40c0 6.6 5.4 12 12 12h72c6.6 0 12-5.4 12-12m192 0V76c0-6.6-5.4-12-12-12H236c-6.6 0-12 5.4-12 12v40c0 6.6 5.4 12 12 12h136c6.6 0 12-5.4 12-12"/><glyph glyph-name="dot-circle" unicode="" horiz-adv-x="512" d="M256 392c110.532 0 200-89.451 200-200C456 81.468 366.549-8 256-8 145.468-8 56 81.451 56 192c0 110.532 89.451 200 200 200m0 48C119.033 440 8 328.967 8 192S119.033-56 256-56 504 55.033 504 192 392.967 440 256 440m0-168c-44.183 0-80-35.817-80-80s35.817-80 80-80 80 35.817 80 80-35.817 80-80 80"/><glyph glyph-name="edit" unicode="" horiz-adv-x="576" d="m402.3 103.1 32 32c5 5 13.7 1.5 13.7-5.7V-16c0-26.5-21.5-48-48-48H48C21.5-64 0-42.5 0-16v352c0 26.5 21.5 48 48 48h273.5c7.1 0 10.7-8.6 5.7-13.7l-32-32c-1.5-1.5-3.5-2.3-5.7-2.3H48V-16h352V97.5c0 2.1.8 4.1 2.3 5.6m156.6 201.8L296.3 42.3l-90.4-10c-26.2-2.9-48.5 19.2-45.6 45.6l10 90.4 262.6 262.6c22.9 22.9 59.9 22.9 82.7 0l43.2-43.2c22.9-22.9 22.9-60 .1-82.8M460.1 274 402 332.1 216.2 146.2l-7.3-65.3 65.3 7.3zm64.8 79.7-43.2 43.2c-4.1 4.1-10.8 4.1-14.8 0L436 366l58.1-58.1 30.9 30.9c4 4.2 4 10.8-.1 14.9"/><glyph glyph-name="envelope-open" unicode="" horiz-adv-x="512" d="M494.586 283.484c-4.697 3.883-111.723 89.95-135.251 108.657C337.231 409.809 299.437 448 256 448c-43.205 0-80.636-37.717-103.335-55.859-24.463-19.45-131.07-105.195-135.15-108.549A48 48 0 0 1 0 246.515V-16c0-26.51 21.49-48 48-48h416c26.51 0 48 21.49 48 48v262.491a48 48 0 0 1-17.414 36.993M464-10a6 6 0 0 0-6-6H54a6 6 0 0 0-6 6v253.653c0 1.813.816 3.526 2.226 4.665 15.87 12.814 108.793 87.554 132.364 106.293C200.755 369.12 232.398 400 256 400c23.693 0 55.857-31.369 73.41-45.389 23.573-18.741 116.503-93.493 132.366-106.316a5.99 5.99 0 0 0 2.224-4.663zm-31.991 187.704c4.249-5.159 3.465-12.795-1.745-16.981-28.975-23.283-59.274-47.597-70.929-56.863C336.636 85.717 299.205 48 256 48c-43.452 0-81.287 38.237-103.335 55.86-11.279 8.967-41.744 33.413-70.927 56.865-5.21 4.187-5.993 11.822-1.745 16.981l15.258 18.528c4.178 5.073 11.657 5.843 16.779 1.726 28.618-23.001 58.566-47.035 70.56-56.571C200.143 127.369 232.307 96 256 96c23.602 0 55.246 30.88 73.41 45.389 11.994 9.535 41.944 33.57 70.563 56.568 5.122 4.116 12.601 3.346 16.778-1.727z"/><glyph glyph-name="envelope" unicode="" horiz-adv-x="512" d="M464 384H48c-26.51 0-48-21.49-48-48V48C0 21.49 21.49 0 48 0h416c26.51 0 48 21.49 48 48v288c0 26.51-21.49 48-48 48m0-48v-40.805c-22.422-18.259-58.168-46.651-134.587-106.49-16.841-13.247-50.201-45.072-73.413-44.701-23.208-.375-56.579 31.459-73.413 44.701C106.18 248.535 70.425 276.933 48 295.195V336zM48 48v185.602c22.914-18.251 55.409-43.862 104.938-82.646C174.795 133.751 213.072 95.77 256 96.001c42.717-.231 80.509 37.199 103.053 54.947 49.528 38.783 82.032 64.401 104.947 82.653V48z"/><glyph glyph-name="eye-slash" unicode="" horiz-adv-x="576" d="M272.702 88.861c-80.483 9.011-136.212 86.886-116.93 167.042zM288 56C185.444 56 95.908 110.701 48 192c21.755 36.917 52.1 68.342 88.344 91.658l-27.541 39.343C67.001 295.766 31.921 259.259 6.646 216.369a48 48 0 0 1 0-48.739C63.004 71.994 168.14 8 288 8a333 333 0 0 1 39.648 2.367l-32.021 45.744A284 284 0 0 0 288 56m281.354 111.631C536.122 111.237 485.933 65.889 425.8 38.139l48.116-68.74c3.801-5.429 2.48-12.912-2.949-16.712L450.23-61.83c-5.429-3.801-12.912-2.48-16.712 2.949L102.084 414.601c-3.801 5.429-2.48 12.912 2.949 16.712l20.737 14.517c5.429 3.801 12.912 2.48 16.712-2.949l55.526-79.325C226.612 371.657 256.808 376 288 376c119.86 0 224.996-63.994 281.354-159.631a48 48 0 0 0 0-48.738M528 192c-44.157 74.933-123.677 127.27-216.162 135.007C302.042 316.922 296 303.17 296 288c0-30.928 25.072-56 56-56s56 25.072 56 56l-.001.042c30.632-57.277 16.739-130.26-36.928-171.719l26.695-38.135C452.626 101.449 498.308 141.614 528 192"/><glyph glyph-name="file-alt" unicode="" horiz-adv-x="384" d="M288 200v-28c0-6.6-5.4-12-12-12H108c-6.6 0-12 5.4-12 12v28c0 6.6 5.4 12 12 12h168c6.6 0 12-5.4 12-12m-12-72H108c-6.6 0-12-5.4-12-12V88c0-6.6 5.4-12 12-12h168c6.6 0 12 5.4 12 12v28c0 6.6-5.4 12-12 12m108 188.1V-16c0-26.5-21.5-48-48-48H48C21.5-64 0-42.5 0-16v416c0 26.5 21.5 48 48 48h204.1c12.7 0 24.9-5.1 33.9-14.1l83.9-83.9c9-8.9 14.1-21.2 14.1-33.9m-128 80V320h76.1zM336-16v288H232c-13.3 0-24 10.7-24 24v104H48V-16z"/><glyph glyph-name="file-archive" unicode="" horiz-adv-x="384" d="m369.941 350.059-83.882 83.882A48 48 0 0 1 252.118 448H48c-26.51 0-48-21.49-48-48V-16c0-26.51 21.49-48 48-48h288c26.51 0 48 21.49 48 48v332.118a48 48 0 0 1-14.059 33.941M256 396.118 332.118 320H256zM336-16H48v416h79.714v-16h32v16H208V296c0-13.255 10.745-24 24-24h104zM192.27 352h-32v32h32zm-32 0v-32h-32v32zm0-64v-32h-32v32zm32 0h-32v32h32zm1.909-105.678A12 12 0 0 1 182.406 192H160.27v32h-32v-32l-19.69-97.106C101.989 62.389 126.834 32 160 32c33.052 0 57.871 30.192 51.476 62.62zM160.27 57.927c-17.918 0-32.444 12.105-32.444 27.036s14.525 27.036 32.444 27.036 32.444-12.105 32.444-27.036-14.526-27.036-32.444-27.036m32 166.073h-32v32h32z"/><glyph glyph-name="file-audio" unicode="" horiz-adv-x="384" d="m369.941 350.059-83.882 83.882A48 48 0 0 1 252.118 448H48c-26.51 0-48-21.49-48-48V-16c0-26.51 21.49-48 48-48h288c26.51 0 48 21.49 48 48v332.118a48 48 0 0 1-14.059 33.941M332.118 320H256v76.118zM48-16v416h160V296c0-13.255 10.745-24 24-24h104V-16zm144 76.024c0-10.691-12.926-16.045-20.485-8.485L136 87.514h-28c-6.627 0-12 5.373-12 12v56c0 6.627 5.373 12 12 12h28l35.515 36.947c7.56 7.56 20.485 2.206 20.485-8.485zm41.201 47.13c9.051 9.297 9.06 24.133.001 33.439-22.149 22.752 12.235 56.246 34.395 33.481 27.198-27.94 27.212-72.444.001-100.401-21.793-22.386-56.947 10.315-34.397 33.481"/><glyph glyph-name="file-code" unicode="" horiz-adv-x="384" d="m369.941 350.059-83.882 83.882A48 48 0 0 1 252.118 448H48c-26.51 0-48-21.49-48-48V-16c0-26.51 21.49-48 48-48h288c26.51 0 48 21.49 48 48v332.118a48 48 0 0 1-14.059 33.941M332.118 320H256v76.118zM48-16v416h160V296c0-13.255 10.745-24 24-24h104V-16zM149.677 99.115 116.854 128l32.822 28.885a8.793 8.793 0 0 1 .605 12.624l-17.403 18.564c-3.384 3.613-8.964 3.662-12.438.401L62.78 134.42c-3.703-3.474-3.704-9.367.001-12.84l57.659-54.055a8.74 8.74 0 0 1 6.012-2.381 8.75 8.75 0 0 1 6.427 2.782l17.403 18.563a8.795 8.795 0 0 1-.605 12.626m84.284 127.85-24.401 7.084a8.796 8.796 0 0 1-10.905-5.998L144.04 39.939c-1.353-4.66 1.338-9.552 5.998-10.905l24.403-7.084c4.68-1.355 9.557 1.354 10.905 5.998l54.612 188.112c1.354 4.66-1.337 9.552-5.997 10.905m87.258-92.545-57.658 54.055c-3.526 3.307-9.099 3.165-12.439-.401l-17.403-18.563a8.795 8.795 0 0 1 .605-12.625L267.146 128l-32.822-28.885a8.793 8.793 0 0 1-.605-12.624l17.403-18.564a8.797 8.797 0 0 1 12.439-.401h-.001l57.66 54.055c3.703 3.473 3.703 9.366-.001 12.839"/><glyph glyph-name="file-excel" unicode="" horiz-adv-x="384" d="M369.9 350.1 286 434c-9 9-21.2 14.1-33.9 14.1H48C21.5 448 0 426.5 0 400V-16c0-26.5 21.5-48 48-48h288c26.5 0 48 21.5 48 48v332.1c0 12.7-5.1 25-14.1 34M332.1 320H256v76.1zM48-16v416h160V296c0-13.3 10.7-24 24-24h104V-16zm212 240h-28.8c-4.4 0-8.4-2.4-10.5-6.3-18-33.1-22.2-42.4-28.6-57.7-13.9 29.1-6.9 17.3-28.6 57.7-2.1 3.9-6.2 6.3-10.6 6.3H124c-9.3 0-15-10-10.4-18l46.3-78-46.3-78c-4.7-8 1.1-18 10.4-18h28.9c4.4 0 8.4 2.4 10.5 6.3 21.7 40 23 45 28.6 57.7 14.9-30.2 5.9-15.9 28.6-57.7 2.1-3.9 6.2-6.3 10.6-6.3H260c9.3 0 15 10 10.4 18L224 128c.7 1.1 30.3 50.5 46.3 78 4.7 8-1.1 18-10.3 18"/><glyph glyph-name="file-image" unicode="" horiz-adv-x="384" d="M369.9 350.1 286 434c-9 9-21.2 14.1-33.9 14.1H48C21.5 448 0 426.5 0 400V-16c0-26.5 21.5-48 48-48h288c26.5 0 48 21.5 48 48v332.1c0 12.7-5.1 25-14.1 34M332.1 320H256v76.1zM48-16v416h160V296c0-13.3 10.7-24 24-24h104V-16zm32 48h224v128l-23.5 23.5c-4.7 4.7-12.3 4.7-17 0L176 96l-39.5 39.5c-4.7 4.7-12.3 4.7-17 0L80 96zm48 240c-26.5 0-48-21.5-48-48s21.5-48 48-48 48 21.5 48 48-21.5 48-48 48"/><glyph glyph-name="file-pdf" unicode="" horiz-adv-x="384" d="M369.9 350.1 286 434c-9 9-21.2 14.1-33.9 14.1H48C21.5 448 0 426.5 0 400V-16c0-26.5 21.5-48 48-48h288c26.5 0 48 21.5 48 48v332.1c0 12.7-5.1 25-14.1 34M332.1 320H256v76.1zM48-16v416h160V296c0-13.3 10.7-24 24-24h104V-16zm250.2 143.7c-12.2 12-47 8.7-64.4 6.5-17.2 10.5-28.7 25-36.8 46.3 3.9 16.1 10.1 40.6 5.4 56-4.2 26.2-37.8 23.6-42.6 5.9-4.4-16.1-.4-38.5 7-67.1-10-23.9-24.9-56-35.4-74.4-20-10.3-47-26.2-51-46.2-3.3-15.8 26-55.2 76.1 31.2 22.4 7.4 46.8 16.5 68.4 20.1 18.9-10.2 41-17 55.8-17 25.5 0 28 28.2 17.5 38.7M100.1 49.9c5.1 13.7 24.5 29.5 30.4 35-19-30.3-30.4-35.7-30.4-35m81.6 190.6c7.4 0 6.7-32.1 1.8-40.8-4.4 13.9-4.3 40.8-1.8 40.8m-24.4-136.6c9.7 16.9 18 37 24.7 54.7 8.3-15.1 18.9-27.2 30.1-35.5-20.8-4.3-38.9-13.1-54.8-19.2m131.6 5s-5-6-37.3 7.8c35.1 2.6 40.9-5.4 37.3-7.8"/><glyph glyph-name="file-powerpoint" unicode="" horiz-adv-x="384" d="M369.9 350.1 286 434c-9 9-21.2 14.1-33.9 14.1H48C21.5 448 0 426.5 0 400V-16c0-26.5 21.5-48 48-48h288c26.5 0 48 21.5 48 48v332.1c0 12.7-5.1 25-14.1 34M332.1 320H256v76.1zM48-16v416h160V296c0-13.3 10.7-24 24-24h104V-16zm72 60v168c0 6.6 5.4 12 12 12h69.2c36.7 0 62.8-27 62.8-66.3 0-74.3-68.7-66.5-95.5-66.5V44c0-6.6-5.4-12-12-12H132c-6.6 0-12 5.4-12 12m48.5 87.4h23c7.9 0 13.9 2.4 18.1 7.2 8.5 9.8 8.4 28.5.1 37.8-4.1 4.6-9.9 7-17.4 7h-23.9v-52z"/><glyph glyph-name="file-video" unicode="" horiz-adv-x="384" d="m369.941 350.059-83.882 83.882A48 48 0 0 1 252.118 448H48c-26.51 0-48-21.49-48-48V-16c0-26.51 21.49-48 48-48h288c26.51 0 48 21.49 48 48v332.118a48 48 0 0 1-14.059 33.941M332.118 320H256v76.118zM48-16v416h160V296c0-13.255 10.745-24 24-24h104V-16zm228.687 211.303L224 142.626V180c0 11.046-8.954 20-20 20H100c-11.046 0-20-8.954-20-20V76c0-11.046 8.954-20 20-20h104c11.046 0 20 8.954 20 20v37.374L276.687 60.7C286.704 50.682 304 57.72 304 72.014v111.975c0 14.311-17.309 21.319-27.313 11.314"/><glyph glyph-name="file-word" unicode="" horiz-adv-x="384" d="M369.9 350.1 286 434c-9 9-21.2 14.1-33.9 14.1H48C21.5 448 0 426.5 0 400V-16c0-26.5 21.5-48 48-48h288c26.5 0 48 21.5 48 48v332.1c0 12.7-5.1 25-14.1 34M332.1 320H256v76.1zM48-16v416h160V296c0-13.3 10.7-24 24-24h104V-16zm220.1 208c-5.7 0-10.6-4-11.7-9.5-20.6-97.7-20.4-95.4-21-103.5-.2 1.2-.4 2.6-.7 4.3-.8 5.1.3-.2-23.6 99.5-1.3 5.4-6.1 9.2-11.7 9.2h-13.3c-5.5 0-10.3-3.8-11.7-9.1-24.4-99-24-96.2-24.8-103.7-.1 1.1-.2 2.5-.5 4.2-.7 5.2-14.1 73.3-19.1 99-1.1 5.6-6 9.7-11.8 9.7h-16.8c-7.8 0-13.5-7.3-11.7-14.8 8-32.6 26.7-109.5 33.2-136 1.3-5.4 6.1-9.1 11.7-9.1h25.2c5.5 0 10.3 3.7 11.6 9.1l17.9 71.4c1.5 6.2 2.5 12 3 17.3l2.9-17.3c.1-.4 12.6-50.5 17.9-71.4 1.3-5.3 6.1-9.1 11.6-9.1h24.7c5.5 0 10.3 3.7 11.6 9.1 20.8 81.9 30.2 119 34.5 136 1.9 7.6-3.8 14.9-11.6 14.9h-15.8z"/><glyph glyph-name="file" unicode="" horiz-adv-x="384" d="M369.9 350.1 286 434c-9 9-21.2 14.1-33.9 14.1H48C21.5 448 0 426.5 0 400V-16c0-26.5 21.5-48 48-48h288c26.5 0 48 21.5 48 48v332.1c0 12.7-5.1 25-14.1 34M332.1 320H256v76.1zM48-16v416h160V296c0-13.3 10.7-24 24-24h104V-16z"/><glyph glyph-name="flag" unicode="" horiz-adv-x="512" d="M336.174 368c-49.132 0-93.305 32-161.913 32-31.301 0-58.303-6.482-80.721-15.168a48 48 0 0 1 2.142 20.727c-2.615 22.866-21.515 40.847-44.481 42.337C23.242 449.71 0 427.569 0 400c0-17.764 9.657-33.262 24-41.562V-48c0-8.837 7.163-16 16-16h16c8.837 0 16 7.163 16 16v83.443C109.869 52.72 143.259 64 199.826 64c49.132 0 93.305-32 161.913-32 58.479 0 101.972 22.617 128.548 39.981C503.846 80.839 512 95.949 512 112.145v239.918c0 34.459-35.264 57.768-66.904 44.117C409.193 380.691 371.641 368 336.174 368M464 112c-21.783-15.412-60.824-32-102.261-32-59.945 0-102.002 32-161.913 32-43.361 0-96.379-9.403-127.826-24v232c21.784 15.412 60.824 32 102.261 32 59.945 0 102.002-32 161.913-32 43.271 0 96.32 17.366 127.826 32z"/><glyph glyph-name="folder-open" unicode="" horiz-adv-x="576" d="M527.943 224H480v48c0 26.51-21.49 48-48 48H272l-64 64H48c-26.51 0-48-21.49-48-48V48C0 21.49 21.49 0 48 0h400a48 48 0 0 1 40.704 22.56l79.942 128c19.948 31.917-3.038 73.44-40.703 73.44M54 336h134.118l64-64H426a6 6 0 0 0 6-6v-42H152a48 48 0 0 1-41.098-23.202L48 96.551v233.456A5.993 5.993 0 0 0 54 336M448 48H72l77.234 128H528z"/><glyph glyph-name="folder" unicode="" horiz-adv-x="512" d="M464 320H272l-64 64H48c-26.51 0-48-21.49-48-48V48C0 21.49 21.49 0 48 0h416c26.51 0 48 21.49 48 48v224c0 26.51-21.49 48-48 48m-6-272H54c-3.314 0-6 2.678-6 5.992v276.016A5.993 5.993 0 0 0 54 336h134.118l64-64H458a6 6 0 0 0 6-6V54a6 6 0 0 0-6-6"/><glyph glyph-name="frown" unicode="" horiz-adv-x="512" d="M256 392c110.532 0 200-89.451 200-200C456 81.468 366.549-8 256-8 145.468-8 56 81.451 56 192c0 110.532 89.451 200 200 200m0 48C119.033 440 8 328.967 8 192S119.033-56 256-56 504 55.033 504 192 392.967 440 256 440m64-136c-9.535 0-18.512-2.386-26.37-6.589h.017c12.735 0 23.059-10.324 23.059-23.059s-10.324-23.059-23.059-23.059-23.059 10.324-23.059 23.059v.017C266.386 266.512 264 257.535 264 248c0-30.928 25.072-56 56-56s56 25.072 56 56-25.072 56-56 56m-128 0c-9.535 0-18.512-2.386-26.37-6.589h.017c12.735 0 23.059-10.324 23.059-23.059s-10.324-23.059-23.059-23.059-23.059 10.324-23.059 23.059v.017C138.386 266.512 136 257.535 136 248c0-30.928 25.072-56 56-56s56 25.072 56 56-25.072 56-56 56m171.547-201.782c-56.595 76.964-158.383 77.065-215.057.001-18.82-25.593 19.858-54.018 38.67-28.438 37.511 51.01 100.365 50.796 137.717.001 18.509-25.172 57.821 2.395 38.67 28.436"/><glyph glyph-name="futbol" unicode="" horiz-adv-x="496" d="M483.8 268.6C449.8 373.4 352.6 440 248.1 440c-25.4 0-51.2-3.9-76.7-12.2C41.2 385.5-30.1 245.6 12.2 115.4 46.2 10.6 143.4-56 247.9-56c25.4 0 51.2 3.9 76.7 12.2C454.8-1.5 526.1 138.4 483.8 268.6M409.3 74.9l-52.2-6.4-43.7 60.9 24.4 75.2 71.1 22.1 38.9-36.4c-.2-30.7-7.4-61.1-21.7-89.2-4.7-9.3-10.7-17.8-16.8-26.2m0 235.4-10.4-53.1-70.7-22-64.2 46.5v73.8l47.4 26.2c39.2-13 73.4-38 97.9-71.4m-224.4 71.3 47.1-26.1v-73.8l-64.2-46.5-70.6 22-10.1 52.5c24.3 33.4 57.9 58.6 97.8 71.9M139 68.5 85.9 75c-14.4 20.1-37.3 59.6-37.8 115.3l39 36.4 71.1-22.2 24.3-74.3zm48.2-67-22.4 48.1 43.6 61.7H287l44.3-61.7-22.4-48.1c-6.2-1.8-57.6-20.4-121.7 0"/><glyph glyph-name="gem" unicode="" horiz-adv-x="576" d="M464 448H112c-4 0-7.8-2-10-5.4L2 295.4c-2.9-4.4-2.6-10.2.7-14.2l276-340.8c4.8-5.9 13.8-5.9 18.6 0l276 340.8c3.3 4.1 3.6 9.8.7 14.2l-99.9 147.2c-2.3 3.4-6 5.4-10.1 5.4m-19.3-48 63.3-96h-68.4l-51.7 96zm-202.1 0h90.7l51.7-96H191zm-111.3 0h56.8l-51.7-96H68zm-43-144h51.4L208 96zm102.9 0h193.6L288 12.7zM368 96l68.2 160h51.4z"/><glyph glyph-name="hand-lizard" unicode="" horiz-adv-x="576" d="M556.686 157.458 410.328 383.171C397.001 403.728 374.417 416 349.917 416H56c-30.879 0-56-25.122-56-56v-8c0-44.112 35.888-80 80-80h196.042l-18.333-48H144c-48.523 0-88-39.477-88-88 0-30.879 25.121-56 56-56h131.552a23.9 23.9 0 0 0 8.697-1.631L352 39.582V-32h224V92.171c0 23.225-6.679 45.801-19.314 65.287M528 16H400v23.582c0 19.948-12.014 37.508-30.604 44.736l-99.751 38.788A71.7 71.7 0 0 1 243.552 128H112c-4.411 0-8 3.589-8 8 0 22.056 17.944 40 40 40h113.709c19.767 0 37.786 12.407 44.84 30.873l24.552 64.281c8.996 23.553-8.428 48.846-33.63 48.846H80c-17.645 0-32 14.355-32 32v8c0 4.411 3.589 8 8 8h293.917c8.166 0 15.693-4.09 20.137-10.942l146.358-225.715A71.84 71.84 0 0 0 528 92.171z"/><glyph glyph-name="hand-paper" unicode="" horiz-adv-x="448" d="M372.57 335.359v10.825c0 43.612-40.52 76.691-83.039 65.546-25.629 49.5-94.09 47.45-117.982-.747-41.28 10.561-82.405-20.928-82.405-64.983V219.87c-19.953 7.427-43.308 5.068-62.083-8.871-29.355-21.796-35.794-63.333-14.55-93.153L132.48-50.569a32 32 0 0 1 26.062-13.432h222.897c14.904 0 27.835 10.289 31.182 24.813L442.805 91.77A203.6 203.6 0 0 1 448 137.436V269c0 40.62-35.523 71.992-75.43 66.359m27.427-197.922c0-11.731-1.334-23.469-3.965-34.886L368.707-16h-201.92L51.591 145.697c-14.439 20.27 15.023 42.776 29.394 22.605l27.128-38.079c8.995-12.626 29.031-6.287 29.031 9.283V346c0 25.645 36.571 24.81 36.571-.691V192c0-8.837 7.163-16 16-16h6.856c8.837 0 16 7.163 16 16v189c0 25.663 36.571 24.81 36.571-.691V192c0-8.837 7.163-16 16-16h6.856c8.837 0 16 7.163 16 16v154.875c0 25.672 36.57 24.81 36.57-.691V192c0-8.837 7.163-16 16-16h6.857c8.837 0 16 7.163 16 16v76.309c0 26.242 36.57 25.64 36.57.691V137.437z"/><glyph glyph-name="hand-peace" unicode="" horiz-adv-x="448" d="M362.146 256.024c-13.71 21.649-38.761 34.016-65.006 30.341V374c0 40.804-32.811 74-73.141 74s-73.14-33.196-73.14-74L160 280l-18.679 78.85c-14.743 38.307-57.471 57.04-95.112 41.942-37.474-15.03-55.78-57.755-41.201-95.642l55.757-144.927c-30.557-24.956-43.994-57.809-24.733-92.218l54.853-97.999C102.625-50.97 124.73-64 148.575-64h205.702c30.744 0 57.558 21.44 64.555 51.797l27.427 118.999a67.8 67.8 0 0 1 1.729 15.203L448 192c0 44.956-43.263 77.343-85.854 64.024M399.987 122c0-1.488-.169-2.977-.502-4.423L372.058-1.424C370.08-10.006 362.768-16 354.276-16H148.575c-6.486 0-12.542 3.621-15.805 9.449l-54.854 98c-4.557 8.141-2.619 18.668 4.508 24.488l26.647 21.764a16 16 0 0 1 4.812 18.139l-64.09 166.549c-12.567 32.655 34.577 50.774 46.717 19.222l59.784-155.357A16 16 0 0 1 171.227 176h11.632c8.837 0 16 7.163 16 16v182c0 34.375 50.281 34.43 50.281 0V192c0-8.837 7.163-16 16-16h6.856c8.837 0 16 7.163 16 16v28c0 25.122 36.567 25.159 36.567 0v-28c0-8.837 7.163-16 16-16h6.856c8.837 0 16 7.163 16 16 0 25.12 36.567 25.16 36.567 0v-70z"/><glyph glyph-name="hand-point-down" unicode="" horiz-adv-x="448" d="M188.8-64c45.616 0 83.2 37.765 83.2 83.2v35.647a93.2 93.2 0 0 1 22.064 7.929c22.006-2.507 44.978 3.503 62.791 15.985C409.342 79.9 448 116.159 448 178.701V200c0 60.063-40 98.512-40 127.2v2.679c4.952 5.747 8 13.536 8 22.12V416c0 17.673-12.894 32-28.8 32H156.8c-15.906 0-28.8-14.327-28.8-32v-64c0-8.584 3.048-16.373 8-22.12v-2.679c0-6.964-6.193-14.862-23.668-30.183l-.148-.129-.146-.131c-9.937-8.856-20.841-18.116-33.253-25.851C48.537 252.202 0 240.514 0 195.2c0-56.928 35.286-92 83.2-92 8.026 0 15.489.814 22.4 2.176V19.2c0-45.099 38.101-83.2 83.2-83.2m0 48c-18.7 0-35.2 16.775-35.2 35.2v158.4c-17.325 0-35.2-26.4-70.4-26.4-26.4 0-35.2 20.625-35.2 44 0 8.794 32.712 20.445 56.1 34.926 14.575 9.074 27.225 19.524 39.875 30.799 18.374 16.109 36.633 33.836 39.596 59.075h176.752C364.087 277.21 400 245.491 400 200v-21.299c0-40.524-22.197-57.124-61.325-50.601-8.001-14.612-33.979-24.151-53.625-12.925-18.225-19.365-46.381-17.787-61.05-4.95V19.2C224 .225 207.775-16 188.8-16M328 384c0 13.255 10.745 24 24 24s24-10.745 24-24-10.745-24-24-24-24 10.745-24 24"/><glyph glyph-name="hand-point-left" unicode="" horiz-adv-x="512" d="M0 227.2C0 181.584 37.765 144 83.2 144h35.647a93.2 93.2 0 0 1 7.929-22.064c-2.507-22.006 3.503-44.978 15.985-62.791C143.9 6.658 180.159-32 242.701-32H264c60.063 0 98.512 40 127.2 40h2.679c5.747-4.952 13.536-8 22.12-8h64c17.673 0 32 12.894 32 28.8v230.4c0 15.906-14.327 28.8-32 28.8h-64c-8.584 0-16.373-3.048-22.12-8H391.2c-6.964 0-14.862 6.193-30.183 23.668l-.129.148-.131.146c-8.856 9.937-18.116 20.841-25.851 33.253C316.202 367.463 304.514 416 259.2 416c-56.928 0-92-35.286-92-83.2 0-8.026.814-15.489 2.176-22.4H83.2C38.101 310.4 0 272.299 0 227.2m48 0c0 18.7 16.775 35.2 35.2 35.2h158.4c0 17.325-26.4 35.2-26.4 70.4 0 26.4 20.625 35.2 44 35.2 8.794 0 20.445-32.712 34.926-56.1 9.074-14.575 19.524-27.225 30.799-39.875 16.109-18.374 33.836-36.633 59.075-39.596V55.677C341.21 51.913 309.491 16 264 16h-21.299c-40.524 0-57.124 22.197-50.601 61.325-14.612 8.001-24.151 33.979-12.925 53.625-19.365 18.225-17.787 46.381-4.95 61.05H83.2C64.225 192 48 208.225 48 227.2M448 88c13.255 0 24-10.745 24-24s-10.745-24-24-24-24 10.745-24 24 10.745 24 24 24"/><glyph glyph-name="hand-point-right" unicode="" horiz-adv-x="512" d="M428.8 310.4h-86.177a115.5 115.5 0 0 1 2.176 22.4c0 47.914-35.072 83.2-92 83.2-45.314 0-57.002-48.537-75.707-78.784-7.735-12.413-16.994-23.317-25.851-33.253l-.131-.146-.129-.148C135.662 286.193 127.764 280 120.8 280h-2.679c-5.747 4.952-13.536 8-22.12 8H32c-17.673 0-32-12.894-32-28.8V28.8C0 12.894 14.327 0 32 0h64c8.584 0 16.373 3.048 22.12 8h2.679c28.688 0 67.137-40 127.2-40h21.299c62.542 0 98.8 38.658 99.94 91.145 12.482 17.813 18.491 40.785 15.985 62.791A93.2 93.2 0 0 1 393.152 144H428.8c45.435 0 83.2 37.584 83.2 83.2 0 45.099-38.101 83.2-83.2 83.2m0-118.4h-91.026c12.837-14.669 14.415-42.825-4.95-61.05 11.227-19.646 1.687-45.624-12.925-53.625C326.423 38.197 309.823 16 269.299 16H248c-45.491 0-77.21 35.913-120 39.676v176.753c25.239 2.964 42.966 21.222 59.075 39.596 11.275 12.65 21.725 25.3 30.799 39.875 14.481 23.388 26.132 56.1 34.926 56.1 23.375 0 44-8.8 44-35.2 0-35.2-26.4-53.075-26.4-70.4h158.4c18.425 0 35.2-16.5 35.2-35.2 0-18.975-16.225-35.2-35.2-35.2M88 64c0-13.255-10.745-24-24-24S40 50.745 40 64s10.745 24 24 24 24-10.745 24-24"/><glyph glyph-name="hand-point-up" unicode="" horiz-adv-x="448" d="M105.6 364.8v-86.177a115.5 115.5 0 0 1-22.4 2.176c-47.914 0-83.2-35.072-83.2-92 0-45.314 48.537-57.002 78.784-75.707 12.413-7.735 23.317-16.994 33.253-25.851l.146-.131.148-.129C129.807 71.662 136 63.764 136 56.8v-2.679c-4.952-5.747-8-13.536-8-22.12v-64c0-17.673 12.894-32 28.8-32h230.4c15.906 0 28.8 14.327 28.8 32v64c0 8.584-3.048 16.373-8 22.12V56.8c0 28.688 40 67.137 40 127.2v21.299c0 62.542-38.658 98.8-91.145 99.94-17.813 12.482-40.785 18.491-62.791 15.985A93.2 93.2 0 0 1 272 329.153V364.8c0 45.435-37.584 83.2-83.2 83.2-45.099 0-83.2-38.101-83.2-83.2m118.4 0v-91.026c14.669 12.837 42.825 14.415 61.05-4.95 19.646 11.227 45.624 1.687 53.625-12.925 39.128 6.524 61.325-10.076 61.325-50.6V184c0-45.491-35.913-77.21-39.676-120H183.571c-2.964 25.239-21.222 42.966-39.596 59.075-12.65 11.275-25.3 21.725-39.875 30.799C80.712 168.355 48 180.006 48 188.8c0 23.375 8.8 44 35.2 44 35.2 0 53.075-26.4 70.4-26.4v158.4c0 18.425 16.5 35.2 35.2 35.2 18.975 0 35.2-16.225 35.2-35.2M352 24c13.255 0 24-10.745 24-24s-10.745-24-24-24-24 10.745-24 24 10.745 24 24 24"/><glyph glyph-name="hand-pointer" unicode="" horiz-adv-x="448" d="M358.182 268.639c-19.493 24.768-52.679 31.945-79.872 19.098-15.127 15.687-36.182 22.487-56.595 19.629V381c0 36.944-29.736 67-66.286 67s-66.286-30.056-66.286-67V219.871c-19.909 7.41-43.272 5.094-62.083-8.872-29.355-21.795-35.793-63.333-14.55-93.152L122.209-36.154C134.632-53.59 154.741-64 176-64h178.286c30.802 0 57.574 21.5 64.557 51.797l27.429 118.999A68 68 0 0 1 448 122v84c0 46.844-46.625 79.273-89.818 62.639M80.985 168.303l27.126-38.079c8.995-12.626 29.031-6.287 29.031 9.283V381c0 25.12 36.571 25.16 36.571 0V206c0-8.836 7.163-16 16-16h6.857c8.837 0 16 7.164 16 16v35c0 25.12 36.571 25.16 36.571 0v-35c0-8.836 7.163-16 16-16H272c8.837 0 16 7.164 16 16v21c0 25.12 36.571 25.16 36.571 0v-21c0-8.836 7.163-16 16-16h6.857c8.837 0 16 7.164 16 16 0 25.121 36.571 25.16 36.571 0v-84c0-1.488-.169-2.977-.502-4.423L372.067-1.424C370.089-10.006 362.777-16 354.285-16H176c-5.769 0-11.263 2.878-14.697 7.697l-109.712 154c-14.406 20.223 14.994 42.818 29.394 22.606M176.143 48v96c0 8.837 6.268 16 14 16h6c7.732 0 14-7.163 14-16V48c0-8.837-6.268-16-14-16h-6c-7.733 0-14 7.163-14 16m75.428 0v96c0 8.837 6.268 16 14 16h6c7.732 0 14-7.163 14-16V48c0-8.837-6.268-16-14-16h-6c-7.732 0-14 7.163-14 16M327 48v96c0 8.837 6.268 16 14 16h6c7.732 0 14-7.163 14-16V48c0-8.837-6.268-16-14-16h-6c-7.732 0-14 7.163-14 16"/><glyph glyph-name="hand-rock" unicode="" horiz-adv-x="512" d="M408.864 368.948c-22.401 33.898-66.108 42.273-98.813 23.588-29.474 31.469-79.145 31.093-108.334.022-47.16 27.02-108.71-5.055-110.671-60.806C44.846 342.593 0 307.999 0 260.571v-56.953c0-32.741 14.28-63.954 39.18-85.634l97.71-85.081C141.142 29.201 140 27.33 140 0c0-17.673 14.327-32 32-32h252c17.673 0 32 14.327 32 32 0 23.513-1.015 30.745 3.982 42.37l42.835 99.656c6.094 14.177 9.183 29.172 9.183 44.568v114.443c0 52.839-54.314 88.662-103.136 67.911M464 186.594a64.5 64.5 0 0 0-5.282-25.613l-42.835-99.655c-5.23-12.171-7.883-25.04-7.883-38.25V16H188v10.286c0 16.37-7.14 31.977-19.59 42.817l-97.71 85.08C56.274 166.745 48 184.764 48 203.619v56.953c0 33.208 52 33.537 52-.677v-41.228a16 16 0 0 1 5.493-12.067l7-6.095A16 16 0 0 1 139 212.571v116.572c0 33.097 52 33.725 52-.677v-26.751c0-8.836 7.164-16 16-16h7c8.836 0 16 7.164 16 16v41.143c0 33.134 52 33.675 52-.677v-40.466c0-8.836 7.163-16 16-16h7c8.837 0 16 7.164 16 16v27.429c0 33.03 52 33.78 52-.677v-26.751c0-8.836 7.163-16 16-16h7c8.837 0 16 7.164 16 16 0 33.146 52 33.613 52-.677z"/><glyph glyph-name="hand-scissors" unicode="" horiz-adv-x="512" d="m256-32 70 .013c5.114 0 10.231.583 15.203 1.729L460.202-2.831C490.56 4.165 512 30.98 512 61.723v205.702c0 23.845-13.03 45.951-34.005 57.69l-97.999 54.853c-34.409 19.261-67.263 5.824-92.218-24.733L142.85 410.992c-37.887 14.579-80.612-3.727-95.642-41.201-15.098-37.642 3.635-80.37 41.942-95.112L168 256l-94 9.141c-40.804 0-74-32.811-74-73.14s33.196-73.141 74-73.141h87.635c-3.675-26.245 8.692-51.297 30.341-65.006C178.657 11.263 211.044-32 256-32m0 48.013c-25.16 0-25.12 36.567 0 36.567 8.837 0 16 7.163 16 16v6.856c0 8.837-7.163 16-16 16h-28c-25.159 0-25.122 36.567 0 36.567h28c8.837 0 16 7.163 16 16v6.856c0 8.837-7.163 16-16 16H74c-34.43 0-34.375 50.281 0 50.281h182c8.837 0 16 7.163 16 16v11.632a16 16 0 0 1-10.254 14.933L106.389 319.49c-31.552 12.14-13.432 59.283 19.222 46.717l166.549-64.091a16 16 0 0 1 18.139 4.812l21.764 26.647c5.82 7.127 16.348 9.064 24.488 4.508l98-54.854c5.828-3.263 9.449-9.318 9.449-15.805V61.723c0-8.491-5.994-15.804-14.576-17.782L330.423 16.514a19.7 19.7 0 0 0-4.423-.502h-70z"/><glyph glyph-name="hand-spock" unicode="" horiz-adv-x="512" d="M21.096 66.21 150.188-55.303a32 32 0 0 1 21.932-8.698h237.6c14.17 0 26.653 9.319 30.68 22.904l31.815 107.313A116 116 0 0 1 477 99.189v36.839c0 4.051.476 8.104 1.414 12.045l31.73 133.41c10.099 42.412-22.316 82.738-65.544 82.525-4.144 24.856-22.543 47.165-49.85 53.992-35.803 8.952-72.227-12.655-81.25-48.75L296.599 264l-21.675 131.99c-8.286 36.07-44.303 58.572-80.304 50.296-29.616-6.804-50.138-32.389-51.882-61.295-42.637-.831-73.455-40.563-64.071-81.844l31.04-136.508c-27.194 22.515-67.284 19.992-91.482-5.722-25.376-26.961-24.098-69.325 2.871-94.707m32.068 61.811.002.001c7.219 7.672 19.241 7.98 26.856.813l53.012-49.894C143.225 69.351 160 76.6 160 90.594v69.479c0 1.193-.134 2.383-.397 3.546l-34.13 150.172c-5.596 24.617 31.502 32.86 37.054 8.421l30.399-133.757a16 16 0 0 1 15.603-12.454h8.604c10.276 0 17.894 9.567 15.594 19.583l-41.62 181.153c-5.623 24.469 31.39 33.076 37.035 8.508l45.22-196.828A16 16 0 0 1 288.956 176h13.217a16 16 0 0 1 15.522 12.119l42.372 169.49c6.104 24.422 42.962 15.159 36.865-9.217L358.805 195.88c-2.521-10.088 5.115-19.88 15.522-19.88h9.694a16 16 0 0 1 15.565 12.295L426.509 301.4c5.821 24.448 42.797 15.687 36.966-8.802L431.72 159.19a100 100 0 0 1-2.72-23.162V99.189c0-6.548-.943-13.051-2.805-19.328L397.775-16h-219.31L53.978 101.164c-7.629 7.18-7.994 19.229-.814 26.857"/><glyph glyph-name="handshake" unicode="" horiz-adv-x="640" d="M616 352h-48c-7.107 0-13.49-3.091-17.884-8H526.59l-31.13 36.3-.16.18A103.97 103.97 0 0 1 417.03 416h-46.55c-17.75 0-34.9-4.94-49.69-14.01-16.46 9.08-35.12 14.01-54.17 14.01h-32.11c-28.903 0-57.599-11.219-79.2-32.8L116.12 344H89.884c-4.394 4.909-10.777 8-17.884 8H24c-13.255 0-24-10.745-24-24V88c0-13.255 10.745-24 24-24h48c10.449 0 19.334 6.68 22.629 16h18.801l75.35-67.57C214.322-14.02 248.705-32 285.36-32c16.39 0 32.28 3.85 46.1 10.93 24.936-.496 51.101 10.368 69.07 31.41 19.684 5.579 37.503 17.426 50.72 34.6 20.989 4.401 40.728 16.492 53.42 35.06h40.701c3.295-9.32 12.18-16 22.629-16h48c13.255 0 24 10.745 24 24v240c0 13.255-10.745 24-24 24M48 96c-8.837 0-16 7.163-16 16s7.163 16 16 16 16-7.163 16-16-7.163-16-16-16m412.52 5.76c-15.35-14.295-36.884-11.328-39.95-8 1.414-13.382-18.257-41.043-49.08-38.88-5.541-18.523-28.218-33.826-51.49-25.75C311.11 20.24 297.54 16 285.36 16c-24.95 0-47.77 14.54-63.14 30.91l-81.3 72.91a31.98 31.98 0 0 1-21.36 8.18H96v168h26.75c8.48 0 16.62 3.37 22.62 9.37l43.88 43.88A64 64 0 0 0 234.51 368h32.11c5.8 0 11.51-.79 17-2.3l-43.27-50.49c-23.56-27.48-23.84-67.62-.66-95.44 32.388-38.866 91.378-39.228 124.48-1.98l25.98 30.08L462.59 152c13.44-14.6 10.95-38.13-2.07-50.24M544 128h-24.458c.104 20.261-6.799 39.33-19.762 54.4L421.7 285.72c4.51 9.51 2.34 21.23-6.01 28.45-10.075 8.691-25.23 7.499-33.86-2.48l-53.63-62.12c-13.828-15.41-38.223-15.145-51.64.93a25.86 25.86 0 0 0 .23 33.47l57.92 67.58A47.09 47.09 0 0 0 370.48 368h46.55c16.11 0 31.44-6.94 42.07-19.04L504.52 296H544zm48-32c-8.837 0-16 7.163-16 16s7.163 16 16 16 16-7.163 16-16-7.163-16-16-16"/><glyph glyph-name="hdd" unicode="" horiz-adv-x="576" d="m567.403 212.358-105.08 151.053A48 48 0 0 1 422.919 384H153.081a48 48 0 0 1-39.404-20.589L8.597 212.358A48 48 0 0 1 0 184.946V48C0 21.49 21.49 0 48 0h480c26.51 0 48 21.49 48 48v136.946c0 9.801-3 19.366-8.597 27.412M153.081 336h269.838l77.913-112H75.168zM528 48H48v128h480zm-32 64c0-17.673-14.327-32-32-32s-32 14.327-32 32 14.327 32 32 32 32-14.327 32-32m-96 0c0-17.673-14.327-32-32-32s-32 14.327-32 32 14.327 32 32 32 32-14.327 32-32"/><glyph glyph-name="heart" unicode="" horiz-adv-x="576" d="M257.3-27.4 92.5 134.4C85.4 141 24 199.9 24 273.2 24 363.9 80.8 424 176 424c41.4 0 80.6-22.8 112-49.8 31.3 27 70.6 49.8 112 49.8 91.7 0 152-56.5 152-150.8 0-52-31.8-103.5-68.1-138.7l-.4-.4L318.7-27.4a43.7 43.7 0 0 0-61.4 0M125.9 168.9 288 9.7l161.8 158.7c27.3 27 54.2 66.3 54.2 104.8 0 66.9-38.2 102.8-104 102.8-47.2 0-92.8-49.3-112-68.4-17 17-64 68.4-112 68.4-65.9 0-104-35.9-104-102.8 0-37.3 26.7-78.9 53.9-104.3"/><glyph glyph-name="hospital" unicode="" horiz-adv-x="448" d="M128 204v40c0 6.627 5.373 12 12 12h40c6.627 0 12-5.373 12-12v-40c0-6.627-5.373-12-12-12h-40c-6.627 0-12 5.373-12 12m140-12h40c6.627 0 12 5.373 12 12v40c0 6.627-5.373 12-12 12h-40c-6.627 0-12-5.373-12-12v-40c0-6.627 5.373-12 12-12m-76-84v40c0 6.627-5.373 12-12 12h-40c-6.627 0-12-5.373-12-12v-40c0-6.627 5.373-12 12-12h40c6.627 0 12 5.373 12 12m76-12h40c6.627 0 12 5.373 12 12v40c0 6.627-5.373 12-12 12h-40c-6.627 0-12-5.373-12-12v-40c0-6.627 5.373-12 12-12M448-28v-36H0v36c0 6.627 5.373 12 12 12h19.5v378.965c0 11.617 10.745 21.035 24 21.035H144v40c0 13.255 10.745 24 24 24h112c13.255 0 24-10.745 24-24v-40h88.5c13.255 0 24-9.418 24-21.035V-16H436c6.627 0 12-5.373 12-12M79.5-15H192v67c0 6.627 5.373 12 12 12h40c6.627 0 12-5.373 12-12v-67h112.5v351H304v-24c0-13.255-10.745-24-24-24H168c-13.255 0-24 10.745-24 24v24H79.5zM266 384h-26v26a6 6 0 0 1-6 6h-20a6 6 0 0 1-6-6v-26h-26a6 6 0 0 1-6-6v-20a6 6 0 0 1 6-6h26v-26a6 6 0 0 1 6-6h20a6 6 0 0 1 6 6v26h26a6 6 0 0 1 6 6v20a6 6 0 0 1-6 6"/><glyph glyph-name="hourglass" unicode="" horiz-adv-x="384" d="M368 400h4c6.627 0 12 5.373 12 12v24c0 6.627-5.373 12-12 12H12c-6.627 0-12-5.373-12-12v-24c0-6.627 5.373-12 12-12h4c0-80.564 32.188-165.807 97.18-208C47.899 149.619 16 64.1 16-16h-4C5.373-16 0-21.373 0-28v-24c0-6.627 5.373-12 12-12h360c6.627 0 12 5.373 12 12v24c0 6.627-5.373 12-12 12h-4c0 80.564-32.188 165.807-97.18 208C336.102 234.381 368 319.9 368 400m-304 0h256c0-101.62-57.307-184-128-184S64 298.379 64 400M320-16H64c0 101.62 57.308 184 128 184S320 85.62 320-16"/><glyph glyph-name="id-badge" unicode="" horiz-adv-x="384" d="M0 400V-16c0-26.51 21.49-48 48-48h288c26.51 0 48 21.49 48 48v416c0 26.51-21.49 48-48 48H48c-26.51 0-48-21.49-48-48m336-32V-10a6 6 0 0 0-6-6H54a6 6 0 0 0-6 6v378zm-144-80c38.66 0 70-31.34 70-70s-31.34-70-70-70-70 31.34-70 70 31.34 70 70 70m80.187-146.047-31.2 7.8c-32.779-23.577-72.51-18.316-97.974 0l-31.2-7.8C93.116 137.279 80 120.48 80 101.207V85c0-11.598 9.402-21 21-21h182c11.598 0 21 9.402 21 21v16.207c0 19.273-13.116 36.072-31.813 40.746"/><glyph glyph-name="id-card" unicode="" horiz-adv-x="512" d="M404 192H300c-6.627 0-12 5.373-12 12v16c0 6.627 5.373 12 12 12h104c6.627 0 12-5.373 12-12v-16c0-6.627-5.373-12-12-12m12-60v16c0 6.627-5.373 12-12 12H300c-6.627 0-12-5.373-12-12v-16c0-6.627 5.373-12 12-12h104c6.627 0 12 5.373 12 12m96 204V48c0-26.51-21.49-48-48-48H48C21.49 0 0 21.49 0 48v288c0 26.51 21.49 48 48 48h416c26.51 0 48-21.49 48-48M464 54v250H48V54a6 6 0 0 1 6-6h404a6 6 0 0 1 6 6M176 256c27.614 0 50-22.386 50-50s-22.386-50-50-50-50 22.386-50 50 22.386 50 50 50m57.276-104.319-22.285 5.571c-23.413-16.841-51.793-13.083-69.981 0l-22.285-5.571C105.369 148.342 96 136.343 96 122.577V111c0-8.284 6.716-15 15-15h130c8.284 0 15 6.716 15 15v11.577c0 13.766-9.369 25.765-22.724 29.104"/><glyph glyph-name="image" unicode="" horiz-adv-x="512" d="M464 384H48c-26.51 0-48-21.49-48-48V48C0 21.49 21.49 0 48 0h416c26.51 0 48 21.49 48 48v288c0 26.51-21.49 48-48 48m-6-336H54a6 6 0 0 0-6 6v276a6 6 0 0 0 6 6h404a6 6 0 0 0 6-6V54a6 6 0 0 0-6-6M128 296c-22.091 0-40-17.909-40-40s17.909-40 40-40 40 17.909 40 40-17.909 40-40 40M96 96h320v80l-87.515 87.515c-4.686 4.686-12.284 4.686-16.971 0L192 144l-39.515 39.515c-4.686 4.686-12.284 4.686-16.971 0L96 144z"/><glyph glyph-name="images" unicode="" horiz-adv-x="576" d="M480 32V16c0-26.51-21.49-48-48-48H48C21.49-32 0-10.51 0 16v256c0 26.51 21.49 48 48 48h16v-48H54a6 6 0 0 1-6-6V22a6 6 0 0 1 6-6h372a6 6 0 0 1 6 6v10zm42 336H150a6 6 0 0 1-6-6V118a6 6 0 0 1 6-6h372a6 6 0 0 1 6 6v244a6 6 0 0 1-6 6m6 48c26.51 0 48-21.49 48-48V112c0-26.51-21.49-48-48-48H144c-26.51 0-48 21.49-48 48v256c0 26.51 21.49 48 48 48zM264 304c0-22.091-17.909-40-40-40s-40 17.909-40 40 17.909 40 40 40 40-17.909 40-40m-72-96 39.515 39.515c4.686 4.686 12.284 4.686 16.971 0L288 208l103.515 103.515c4.686 4.686 12.284 4.686 16.971 0L480 240v-80H192z"/><glyph glyph-name="keyboard" unicode="" horiz-adv-x="576" d="M528 384H48c-26.51 0-48-21.49-48-48V48C0 21.49 21.49 0 48 0h480c26.51 0 48 21.49 48 48v288c0 26.51-21.49 48-48 48m8-336c0-4.411-3.589-8-8-8H48c-4.411 0-8 3.589-8 8v288c0 4.411 3.589 8 8 8h480c4.411 0 8-3.589 8-8zM170 178v28c0 6.627-5.373 12-12 12h-28c-6.627 0-12-5.373-12-12v-28c0-6.627 5.373-12 12-12h28c6.627 0 12 5.373 12 12m96 0v28c0 6.627-5.373 12-12 12h-28c-6.627 0-12-5.373-12-12v-28c0-6.627 5.373-12 12-12h28c6.627 0 12 5.373 12 12m96 0v28c0 6.627-5.373 12-12 12h-28c-6.627 0-12-5.373-12-12v-28c0-6.627 5.373-12 12-12h28c6.627 0 12 5.373 12 12m96 0v28c0 6.627-5.373 12-12 12h-28c-6.627 0-12-5.373-12-12v-28c0-6.627 5.373-12 12-12h28c6.627 0 12 5.373 12 12M122 96v28c0 6.627-5.373 12-12 12H82c-6.627 0-12-5.373-12-12V96c0-6.627 5.373-12 12-12h28c6.627 0 12 5.373 12 12m384 0v28c0 6.627-5.373 12-12 12h-28c-6.627 0-12-5.373-12-12V96c0-6.627 5.373-12 12-12h28c6.627 0 12 5.373 12 12M122 260v28c0 6.627-5.373 12-12 12H82c-6.627 0-12-5.373-12-12v-28c0-6.627 5.373-12 12-12h28c6.627 0 12 5.373 12 12m96 0v28c0 6.627-5.373 12-12 12h-28c-6.627 0-12-5.373-12-12v-28c0-6.627 5.373-12 12-12h28c6.627 0 12 5.373 12 12m96 0v28c0 6.627-5.373 12-12 12h-28c-6.627 0-12-5.373-12-12v-28c0-6.627 5.373-12 12-12h28c6.627 0 12 5.373 12 12m96 0v28c0 6.627-5.373 12-12 12h-28c-6.627 0-12-5.373-12-12v-28c0-6.627 5.373-12 12-12h28c6.627 0 12 5.373 12 12m96 0v28c0 6.627-5.373 12-12 12h-28c-6.627 0-12-5.373-12-12v-28c0-6.627 5.373-12 12-12h28c6.627 0 12 5.373 12 12m-98-158v16c0 6.627-5.373 12-12 12H180c-6.627 0-12-5.373-12-12v-16c0-6.627 5.373-12 12-12h216c6.627 0 12 5.373 12 12"/><glyph glyph-name="lemon" unicode="" horiz-adv-x="512" d="M484.112 420.111c-28.123 28.122-68.004 35.946-97.053 19.024-39.455-22.983-163.555 49.976-295.863-82.332C-41.277 224.328 31.923 100.528 8.866 60.942-8.056 31.891-.234-7.99 27.888-36.112c28.135-28.135 68.011-35.938 97.057-19.021 39.423 22.97 163.557-49.969 295.858 82.329 132.474 132.477 59.273 256.277 82.331 295.861 16.922 29.05 9.1 68.931-19.022 97.054m-22.405-72.894c-38.8-66.609 45.6-165.635-74.845-286.08-120.44-120.443-219.475-36.048-286.076-74.843-22.679-13.207-64.035 27.241-50.493 50.488 38.8 66.609-45.6 165.635 74.845 286.08 120.435 120.436 219.478 36.052 286.081 74.846 22.73 13.24 64.005-27.288 50.488-50.491m-169.861-8.736c1.37-10.96-6.404-20.957-17.365-22.327-54.846-6.855-135.779-87.787-142.635-142.635-1.373-10.989-11.399-18.734-22.326-17.365-10.961 1.37-18.735 11.366-17.365 22.326 9.162 73.286 104.167 168.215 177.365 177.365 10.953 1.368 20.956-6.403 22.326-17.364"/><glyph glyph-name="life-ring" unicode="" horiz-adv-x="512" d="M256-56c136.967 0 248 111.033 248 248S392.967 440 256 440 8 328.967 8 192 119.033-56 256-56M152.602 20.72l53.411 53.411c31.806-13.506 68.128-13.522 99.974 0l53.411-53.411c-63.217-38.319-143.579-38.319-206.796 0M336 192c0-44.112-35.888-80-80-80s-80 35.888-80 80 35.888 80 80 80 80-35.888 80-80m91.28-103.398-53.411 53.411c13.505 31.806 13.522 68.128 0 99.974l53.411 53.411c38.319-63.217 38.319-143.579 0-206.796M359.397 363.28l-53.411-53.411c-31.806 13.505-68.128 13.522-99.973 0l-53.411 53.411c63.217 38.319 143.579 38.319 206.795 0M84.72 295.398l53.411-53.411c-13.506-31.806-13.522-68.128 0-99.974L84.72 88.602c-38.319 63.217-38.319 143.579 0 206.796"/><glyph glyph-name="lightbulb" unicode="" horiz-adv-x="384" d="M272 20V-8c0-10.449-6.68-19.334-16-22.629V-40c0-13.255-10.745-24-24-24h-80c-13.255 0-24 10.745-24 24v9.371c-9.32 3.295-16 12.18-16 22.629v28c0 6.627 5.373 12 12 12h136c6.627 0 12-5.373 12-12M128 272c0 35.29 28.71 64 64 64 8.837 0 16 7.164 16 16s-7.163 16-16 16c-52.935 0-96-43.065-96-96 0-8.836 7.164-16 16-16s16 7.164 16 16m64 128c70.734 0 128-57.254 128-128 0-77.602-37.383-60.477-80.98-160h-94.04C101.318 211.67 64 194.131 64 272c0 70.735 57.254 128 128 128m0 48c-97.195 0-176-78.803-176-176 0-101.731 51.697-91.541 90.516-192.674C110.066 70.077 118.986 64 128.892 64h126.215c9.906 0 18.826 6.078 22.376 15.326C316.303 180.459 368 170.269 368 272c0 97.197-78.805 176-176 176"/><glyph glyph-name="list-alt" unicode="" horiz-adv-x="512" d="M464 416H48c-26.51 0-48-21.49-48-48V16c0-26.51 21.49-48 48-48h416c26.51 0 48 21.49 48 48v352c0 26.51-21.49 48-48 48m-6-400H54a6 6 0 0 0-6 6v340a6 6 0 0 0 6 6h404a6 6 0 0 0 6-6V22a6 6 0 0 0-6-6m-42 92V84c0-6.627-5.373-12-12-12H204c-6.627 0-12 5.373-12 12v24c0 6.627 5.373 12 12 12h200c6.627 0 12-5.373 12-12m0 96v-24c0-6.627-5.373-12-12-12H204c-6.627 0-12 5.373-12 12v24c0 6.627 5.373 12 12 12h200c6.627 0 12-5.373 12-12m0 96v-24c0-6.627-5.373-12-12-12H204c-6.627 0-12 5.373-12 12v24c0 6.627 5.373 12 12 12h200c6.627 0 12-5.373 12-12m-252-12c0-19.882-16.118-36-36-36s-36 16.118-36 36 16.118 36 36 36 36-16.118 36-36m0-96c0-19.882-16.118-36-36-36s-36 16.118-36 36 16.118 36 36 36 36-16.118 36-36m0-96c0-19.882-16.118-36-36-36S92 76.118 92 96s16.118 36 36 36 36-16.118 36-36"/><glyph glyph-name="map" unicode="" horiz-adv-x="576" d="m508.505 411.83-126.988-56.406-174.338 58.113a48 48 0 0 1-34.674-1.674l-144-64A48 48 0 0 1 0 304V16.033C0-18.905 35.991-41.831 67.495-27.83l126.988 56.406 174.339-58.113a48 48 0 0 1 34.674 1.674l144 64A48 48 0 0 1 576 80v287.967c0 34.938-35.991 57.864-67.495 43.863M360 24 216 72v288l144-48zM48 16v288l120 53.333v-288zm480 64L408 26.667v288L528 368z"/><glyph glyph-name="meh" unicode="" horiz-adv-x="512" d="M256 392c110.532 0 200-89.451 200-200C456 81.468 366.549-8 256-8 145.468-8 56 81.451 56 192c0 110.532 89.451 200 200 200m0 48C119.033 440 8 328.967 8 192S119.033-56 256-56 504 55.033 504 192 392.967 440 256 440m64-136c-9.535 0-18.512-2.386-26.37-6.589h.017c12.735 0 23.059-10.324 23.059-23.059s-10.324-23.059-23.059-23.059-23.059 10.324-23.059 23.059v.017C266.386 266.512 264 257.535 264 248c0-30.928 25.072-56 56-56s56 25.072 56 56-25.072 56-56 56m-128 0c-9.535 0-18.512-2.386-26.37-6.589h.017c12.735 0 23.059-10.324 23.059-23.059s-10.324-23.059-23.059-23.059-23.059 10.324-23.059 23.059v.017C138.386 266.512 136 257.535 136 248c0-30.928 25.072-56 56-56s56 25.072 56 56-25.072 56-56 56m136-184H184c-31.776 0-31.749-48 0-48h144c31.776 0 31.749 48 0 48"/><glyph glyph-name="minus-square" unicode="" horiz-adv-x="448" d="M108 164c-6.6 0-12 5.4-12 12v32c0 6.6 5.4 12 12 12h232c6.6 0 12-5.4 12-12v-32c0-6.6-5.4-12-12-12zm340 204V16c0-26.5-21.5-48-48-48H48C21.5-32 0-10.5 0 16v352c0 26.5 21.5 48 48 48h352c26.5 0 48-21.5 48-48M400 22v340c0 3.3-2.7 6-6 6H54c-3.3 0-6-2.7-6-6V22c0-3.3 2.7-6 6-6h340c3.3 0 6 2.7 6 6"/><glyph glyph-name="money-bill-alt" unicode="" horiz-adv-x="640" d="M320 304c-53.021 0-96-50.143-96-112 0-61.847 42.977-112 96-112 53 0 96 50.13 96 112 0 61.857-42.979 112-96 112m48-164.428c0-7.477-3.917-11.572-11.572-11.572h-67.293c-7.656 0-11.573 4.095-11.573 11.572v8.901c0 7.477 3.917 11.572 11.573 11.572h15.131v39.878c0 5.163.534 10.503.534 10.503h-.356s-1.779-2.67-2.848-3.738c-4.451-4.273-10.504-4.451-15.666 1.068l-5.518 6.231c-5.342 5.341-4.984 11.216.534 16.379l21.72 19.939c4.449 4.095 8.366 5.697 14.42 5.697h12.105c7.656 0 11.75-3.916 11.75-11.572v-84.384h15.488c7.655 0 11.572-4.094 11.572-11.572zM616 384H24c-13.255 0-24-10.745-24-24V25C0 11.745 10.745 1 24 1h592c13.255 0 24 10.745 24 24v335c0 13.255-10.745 24-24 24M512 48H128c0 44.183-35.817 80-80 80v128c44.183 0 80 35.817 80 80h384c0-44.183 35.817-80 80-80V128c-44.183 0-80-35.817-80-80"/><glyph glyph-name="moon" unicode="" horiz-adv-x="512" d="M279.135-64c78.756 0 150.982 35.804 198.844 94.775 28.27 34.831-2.558 85.722-46.249 77.401-82.348-15.683-158.272 47.268-158.272 130.792 0 48.424 26.06 92.292 67.434 115.836 38.745 22.05 28.999 80.788-15.022 88.919A258 258 0 0 1 279.135 448c-141.36 0-256-114.575-256-256 0-141.36 114.576-256 256-256m0 464c12.985 0 25.689-1.201 38.016-3.478-54.76-31.163-91.693-90.042-91.693-157.554 0-113.848 103.641-199.2 215.252-177.944C402.574 14.036 344.366-16 279.135-16c-114.875 0-208 93.125-208 208s93.125 208 208 208"/><glyph glyph-name="newspaper" unicode="" horiz-adv-x="576" d="M552 384H112c-20.858 0-38.643-13.377-45.248-32H24c-13.255 0-24-10.745-24-24V56C0 25.072 25.072 0 56 0h496c13.255 0 24 10.745 24 24v336c0 13.255-10.745 24-24 24M48 56v248h16V56c0-4.411-3.589-8-8-8s-8 3.589-8 8m480-8H111.422c.374 2.614.578 5.283.578 8v280h416zM172 168h136c6.627 0 12 5.373 12 12v96c0 6.627-5.373 12-12 12H172c-6.627 0-12-5.373-12-12v-96c0-6.627 5.373-12 12-12m28 80h80v-40h-80zm-40-140v24c0 6.627 5.373 12 12 12h136c6.627 0 12-5.373 12-12v-24c0-6.627-5.373-12-12-12H172c-6.627 0-12 5.373-12 12m192 0v24c0 6.627 5.373 12 12 12h104c6.627 0 12-5.373 12-12v-24c0-6.627-5.373-12-12-12H364c-6.627 0-12 5.373-12 12m0 144v24c0 6.627 5.373 12 12 12h104c6.627 0 12-5.373 12-12v-24c0-6.627-5.373-12-12-12H364c-6.627 0-12 5.373-12 12m0-72v24c0 6.627 5.373 12 12 12h104c6.627 0 12-5.373 12-12v-24c0-6.627-5.373-12-12-12H364c-6.627 0-12 5.373-12 12"/><glyph glyph-name="object-group" unicode="" horiz-adv-x="512" d="M500 320c6.627 0 12 5.373 12 12v72c0 6.627-5.373 12-12 12h-72c-6.627 0-12-5.373-12-12v-12H96v12c0 6.627-5.373 12-12 12H12c-6.627 0-12-5.373-12-12v-72c0-6.627 5.373-12 12-12h12V64H12C5.373 64 0 58.627 0 52v-72c0-6.627 5.373-12 12-12h72c6.627 0 12 5.373 12 12v12h320v-12c0-6.627 5.373-12 12-12h72c6.627 0 12 5.373 12 12v72c0 6.627-5.373 12-12 12h-12v256zm-52 64h32v-32h-32zm-416 0h32v-32H32zM64 0H32v32h32zm416 0h-32v32h32zm-40 64h-12c-6.627 0-12-5.373-12-12V40H96v12c0 6.627-5.373 12-12 12H72v256h12c6.627 0 12 5.373 12 12v12h320v-12c0-6.627 5.373-12 12-12h12zm-36 192h-84v52c0 6.628-5.373 12-12 12H108c-6.627 0-12-5.372-12-12V140c0-6.628 5.373-12 12-12h84V76c0-6.628 5.373-12 12-12h200c6.627 0 12 5.372 12 12v168c0 6.628-5.373 12-12 12m-268 24h144V168H136zm240-176H232v24h76c6.627 0 12 5.372 12 12v76h56z"/><glyph glyph-name="object-ungroup" unicode="" horiz-adv-x="576" d="M564 224c6.627 0 12 5.373 12 12v72c0 6.627-5.373 12-12 12h-72c-6.627 0-12-5.373-12-12v-12h-88v24h12c6.627 0 12 5.373 12 12v72c0 6.627-5.373 12-12 12h-72c-6.627 0-12-5.373-12-12v-12H96v12c0 6.627-5.373 12-12 12H12c-6.627 0-12-5.373-12-12v-72c0-6.627 5.373-12 12-12h12V160H12c-6.627 0-12-5.373-12-12V76c0-6.627 5.373-12 12-12h72c6.627 0 12 5.373 12 12v12h88V64h-12c-6.627 0-12-5.373-12-12v-72c0-6.627 5.373-12 12-12h72c6.627 0 12 5.373 12 12v12h224v-12c0-6.627 5.373-12 12-12h72c6.627 0 12 5.373 12 12v72c0 6.627-5.373 12-12 12h-12v160zM352 384h32v-32h-32zm0-256h32V96h-32zM64 96H32v32h32zm0 256H32v32h32zm32-216v12c0 6.627-5.373 12-12 12H72v160h12c6.627 0 12 5.373 12 12v12h224v-12c0-6.627 5.373-12 12-12h12V160h-12c-6.627 0-12-5.373-12-12v-12zM224 0h-32v32h32zm280 64h-12c-6.627 0-12-5.373-12-12V40H256v12c0 6.627-5.373 12-12 12h-12v24h88V76c0-6.627 5.373-12 12-12h72c6.627 0 12 5.373 12 12v72c0 6.627-5.373 12-12 12h-12v88h88v-12c0-6.627 5.373-12 12-12h12zm40-64h-32v32h32zm0 256h-32v32h32z"/><glyph glyph-name="paper-plane" unicode="" horiz-adv-x="512" d="M440 441.5 24 201.6c-34.4-19.9-31.1-70.8 5.7-85.9L144 68.4V-16c0-46.4 59.2-65.5 86.6-28.6l43.8 59.1 111.9-46.2c5.9-2.4 12.1-3.6 18.3-3.6 8.2 0 16.3 2.1 23.6 6.2 12.8 7.2 21.6 20 23.9 34.5l59.4 387.2c6.1 40.1-36.9 68.8-71.5 48.9M192-16v64.6l36.6-15.1zm212.6 28.7L250.8 76.2 391 278.5c10.7 15.5-9.5 33.5-23.7 21.2L155.8 115.4 48 160l416 240z"/><glyph glyph-name="pause-circle" unicode="" horiz-adv-x="512" d="M256 440C119 440 8 329 8 192S119-56 256-56 504 55 504 192 393 440 256 440m0-448C145.5-8 56 81.5 56 192s89.5 200 200 200 200-89.5 200-200S366.5-8 256-8m96 280V112c0-8.8-7.2-16-16-16h-48c-8.8 0-16 7.2-16 16v160c0 8.8 7.2 16 16 16h48c8.8 0 16-7.2 16-16m-112 0V112c0-8.8-7.2-16-16-16h-48c-8.8 0-16 7.2-16 16v160c0 8.8 7.2 16 16 16h48c8.8 0 16-7.2 16-16"/><glyph glyph-name="play-circle" unicode="" horiz-adv-x="512" d="m371.7 210-176 107c-15.8 8.8-35.7-2.5-35.7-21V88c0-18.4 19.8-29.8 35.7-21l176 101c16.4 9.1 16.4 32.8 0 42M504 192c0 137-111 248-248 248S8 329 8 192 119-56 256-56 504 55 504 192m-448 0c0 110.5 89.5 200 200 200s200-89.5 200-200S366.5-8 256-8 56 81.5 56 192"/><glyph glyph-name="plus-square" unicode="" horiz-adv-x="448" d="M352 208v-32c0-6.6-5.4-12-12-12h-88V76c0-6.6-5.4-12-12-12h-32c-6.6 0-12 5.4-12 12v88h-88c-6.6 0-12 5.4-12 12v32c0 6.6 5.4 12 12 12h88v88c0 6.6 5.4 12 12 12h32c6.6 0 12-5.4 12-12v-88h88c6.6 0 12-5.4 12-12m96 160V16c0-26.5-21.5-48-48-48H48C21.5-32 0-10.5 0 16v352c0 26.5 21.5 48 48 48h352c26.5 0 48-21.5 48-48M400 22v340c0 3.3-2.7 6-6 6H54c-3.3 0-6-2.7-6-6V22c0-3.3 2.7-6 6-6h340c3.3 0 6 2.7 6 6"/><glyph glyph-name="question-circle" unicode="" horiz-adv-x="512" d="M256 440C119.043 440 8 328.917 8 192 8 55.003 119.043-56 256-56S504 55.003 504 192c0 136.917-111.043 248-248 248m0-448C145.468-8 56 81.431 56 192c0 110.495 89.472 200 200 200 110.491 0 200-89.471 200-200C456 81.47 366.569-8 256-8m107.244 255.2c0-67.052-72.421-68.084-72.421-92.863V148c0-6.627-5.373-12-12-12h-45.647c-6.627 0-12 5.373-12 12v8.659c0 35.745 27.1 50.034 47.579 61.516 17.561 9.845 28.324 16.541 28.324 29.579 0 17.246-21.999 28.693-39.784 28.693-23.189 0-33.894-10.977-48.942-29.969-4.057-5.12-11.46-6.071-16.666-2.124l-27.824 21.098c-5.107 3.872-6.251 11.066-2.644 16.363C184.846 316.509 214.94 336 261.794 336c49.071 0 101.45-38.304 101.45-88.8M298 80c0-23.159-18.841-42-42-42s-42 18.841-42 42 18.841 42 42 42 42-18.841 42-42"/><glyph glyph-name="registered" unicode="" horiz-adv-x="512" d="M256 440C119.033 440 8 328.967 8 192S119.033-56 256-56 504 55.033 504 192 392.967 440 256 440m0-448C145.468-8 56 81.451 56 192c0 110.531 89.451 200 200 200 110.532 0 200-89.451 200-200C456 81.468 366.549-8 256-8m110.442 81.791c-53.046 96.284-50.25 91.468-53.271 96.085 24.267 13.879 39.482 41.563 39.482 73.176 0 52.503-30.247 85.252-101.498 85.252h-78.667c-6.617 0-12-5.383-12-12V68c0-6.617 5.383-12 12-12h38.568c6.617 0 12 5.383 12 12v83.663h31.958l47.515-89.303A11.98 11.98 0 0 1 313.122 56h42.81c9.14 0 14.914 9.799 10.51 17.791M256.933 208.094h-33.875v64.14h27.377c32.417 0 38.929-12.133 38.929-31.709-.001-20.913-11.518-32.431-32.431-32.431"/><glyph glyph-name="save" unicode="" horiz-adv-x="448" d="m433.941 318.059-83.882 83.882A48 48 0 0 1 316.118 416H48c-26.51 0-48-21.49-48-48V16c0-26.51 21.49-48 48-48h352c26.51 0 48 21.49 48 48v268.118a48 48 0 0 1-14.059 33.941M272 368v-80H144v80zM394 16H54a6 6 0 0 0-6 6v340a6 6 0 0 0 6 6h42V264c0-13.255 10.745-24 24-24h176c13.255 0 24 10.745 24 24v100.118l78.243-78.243a6 6 0 0 0 1.757-4.243V22a6 6 0 0 0-6-6M224 216c-48.523 0-88-39.477-88-88s39.477-88 88-88 88 39.477 88 88-39.477 88-88 88m0-128c-22.056 0-40 17.944-40 40s17.944 40 40 40 40-17.944 40-40-17.944-40-40-40"/><glyph glyph-name="share-square" unicode="" horiz-adv-x="576" d="M561.938 289.94 417.94 433.908c-30.014 30.014-81.94 8.995-81.94-33.94V342.77c-42.45-1.88-84.03-6.55-120.76-17.99-35.17-10.95-63.07-27.58-82.91-49.42C108.22 248.8 96 215.4 96 176.06c0-61.697 33.178-112.455 84.87-144.76 37.546-23.508 85.248 12.651 71.02 55.74-15.515 47.119-17.156 70.923 84.11 78.76V112c0-42.993 51.968-63.913 81.94-33.94l143.998 144c18.75 18.74 18.75 49.14 0 67.88M384 112v103.84C255.309 213.918 166.492 192.65 206.31 72 176.79 90.45 144 123.92 144 176.06c0 109.334 129.14 118.947 240 119.85V400l144-144zm24.74-84.493a82.7 82.7 0 0 1 20.974 9.303C437.69 41.762 448 35.984 448 26.596V-16c0-26.51-21.49-48-48-48H48C21.49-64 0-42.51 0-16v352c0 26.51 21.49 48 48 48h132c6.627 0 12-5.373 12-12v-4.486c0-4.917-2.987-9.369-7.569-11.152-13.702-5.331-26.396-11.537-38.05-18.585a12.14 12.14 0 0 0-6.28-1.777H54a6 6 0 0 1-6-6V-10a6 6 0 0 1 6-6h340a6 6 0 0 1 6 6v25.966c0 5.37 3.579 10.059 8.74 11.541"/><glyph glyph-name="smile" unicode="" horiz-adv-x="512" d="M256 392c110.532 0 200-89.451 200-200C456 81.468 366.549-8 256-8 145.468-8 56 81.451 56 192c0 110.532 89.451 200 200 200m0 48C119.033 440 8 328.967 8 192S119.033-56 256-56 504 55.033 504 192 392.967 440 256 440m64-136c-9.535 0-18.512-2.386-26.37-6.589h.017c12.735 0 23.059-10.324 23.059-23.059s-10.324-23.059-23.059-23.059-23.059 10.324-23.059 23.059v.017C266.386 266.512 264 257.535 264 248c0-30.928 25.072-56 56-56s56 25.072 56 56-25.072 56-56 56m-128 0c-9.535 0-18.512-2.386-26.37-6.589h.017c12.735 0 23.059-10.324 23.059-23.059s-10.324-23.059-23.059-23.059-23.059 10.324-23.059 23.059v.017C138.386 266.512 136 257.535 136 248c0-30.928 25.072-56 56-56s56 25.072 56 56-25.072 56-56 56m195.372-182.219c18.819 25.592-19.856 54.017-38.67 28.438-50.135-68.177-135.229-68.18-185.367 0-18.828 25.601-57.478-2.861-38.67-28.438 69.298-94.231 193.323-94.351 262.707 0"/><glyph glyph-name="snowflake" unicode="" horiz-adv-x="448" d="m438.237 92.073-66.574 38.54 59.448 10.327c5.846 1.375 10.609 5.183 13.458 10.13 2.48 4.307 3.506 9.478 2.524 14.651-2.11 11.115-12.686 18.039-23.621 15.467l-85.423-31.115L255.914 192l82.136 41.926 85.423-31.115c10.936-2.572 21.512 4.352 23.621 15.467 2.111 11.115-5.046 22.209-15.981 24.781l-59.448 10.327 66.573 38.54c9.54 5.523 12.615 18.092 6.867 28.074s-18.14 13.596-27.68 8.074l-66.574-38.54 20.805 56.787c3.246 10.782-2.758 22.542-13.413 26.268-10.654 3.725-21.922-1.997-25.168-12.779l-15.838-89.735-72.423-41.926V312l69.585 58.621c7.689 8.21 6.997 20.856-1.548 28.245-8.545 7.391-21.705 6.723-29.394-1.486l-38.644-46.46V428c0 11.046-9.318 20-20.813 20s-20.813-8.954-20.813-20v-77.08l-38.644 46.46c-7.689 8.21-20.849 8.876-29.394 1.486s-9.236-20.035-1.547-28.245L203.187 312v-83.853l-72.423 41.926-15.838 89.736c-3.247 10.782-14.515 16.504-25.169 12.779-10.656-3.725-16.659-15.486-13.413-26.268l20.805-56.787-66.573 38.54c-9.54 5.523-21.933 1.908-27.68-8.074s-2.673-22.551 6.867-28.074l66.574-38.54-59.449-10.328C5.953 240.485-1.202 229.391.907 218.276s12.686-18.038 23.622-15.466l85.422 31.115L192.086 192l-82.136-41.926-85.423 31.115c-10.936 2.572-21.511-4.352-23.622-15.466-2.109-11.113 5.046-22.209 15.981-24.781l59.449-10.328-66.574-38.54C.223 86.551-2.852 73.982 2.896 64s18.14-13.597 27.68-8.074l66.574 38.54L76.345 37.68c-1.735-5.764-.828-11.805 2.02-16.751 2.48-4.307 6.433-7.784 11.392-9.517 10.655-3.725 21.923 1.997 25.169 12.779l15.838 89.736 72.423 41.926V72l-69.585-58.621c-7.69-8.21-6.997-20.855 1.547-28.245 8.544-7.388 21.705-6.723 29.394 1.487l38.644 46.46V-44c0-11.046 9.318-20 20.813-20s20.813 8.954 20.813 20v77.081l38.644-46.46c4.111-4.389 9.782-6.621 15.478-6.621 4.96 0 9.939 1.694 13.916 5.134 8.545 7.39 9.237 20.035 1.548 28.245L244.813 72v83.853l72.423-41.926 15.838-89.736c3.246-10.782 14.514-16.504 25.168-12.779s16.659 15.487 13.412 26.268l-20.805 56.787 66.574-38.54c9.54-5.523 21.933-1.908 27.68 8.074 5.749 9.981 2.675 22.55-6.866 28.072"/><glyph glyph-name="square" unicode="" horiz-adv-x="448" d="M400 416H48c-26.5 0-48-21.5-48-48V16c0-26.5 21.5-48 48-48h352c26.5 0 48 21.5 48 48v352c0 26.5-21.5 48-48 48m-6-400H54c-3.3 0-6 2.7-6 6v340c0 3.3 2.7 6 6 6h340c3.3 0 6-2.7 6-6V22c0-3.3-2.7-6-6-6"/><glyph glyph-name="star-half" unicode="" horiz-adv-x="576" d="M288 62.7 163.7-2.7l23.7 138.4-100.6 98 139 20.2 62.2 126V448c-11.4 0-22.8-5.9-28.7-17.8L194 297.8 47.9 276.6c-26.2-3.8-36.7-36.1-17.7-54.6l105.7-103-25-145.5c-4.5-26.1 23-46 46.4-33.7L288 8.4z"/><glyph glyph-name="star" unicode="" horiz-adv-x="576" d="M528.1 276.5 382 297.8l-65.3 132.4c-11.7 23.6-45.6 23.9-57.4 0L194 297.8 47.9 276.5c-26.2-3.8-36.7-36.1-17.7-54.6l105.7-103-25-145.5c-4.5-26.3 23.2-46 46.4-33.7L288 8.4l130.7-68.7c23.2-12.2 50.9 7.4 46.4 33.7l-25 145.5 105.7 103c19 18.5 8.5 50.8-17.7 54.6M388.6 135.7 412.3-2.7 288 62.6 163.7-2.7l23.7 138.4-100.6 98 139 20.2 62.2 126 62.2-126 139-20.2z"/><glyph glyph-name="sticky-note" unicode="" horiz-adv-x="448" d="M448 99.894V368c0 26.51-21.49 48-48 48H48c-26.51 0-48-21.49-48-48V16.012c0-26.51 21.49-48 48-48h268.118a48 48 0 0 1 33.941 14.059l83.882 83.882A48 48 0 0 1 448 99.894m-128-80v76.118h76.118zM400 368V144.012H296c-13.255 0-24-10.745-24-24v-104H48V368z"/><glyph glyph-name="stop-circle" unicode="" horiz-adv-x="512" d="M504 192c0 137-111 248-248 248S8 329 8 192 119-56 256-56 504 55 504 192m-448 0c0 110.5 89.5 200 200 200s200-89.5 200-200S366.5-8 256-8 56 81.5 56 192m296 80V112c0-8.8-7.2-16-16-16H176c-8.8 0-16 7.2-16 16v160c0 8.8 7.2 16 16 16h160c8.8 0 16-7.2 16-16"/><glyph glyph-name="sun" unicode="" horiz-adv-x="512" d="M220.116-39.936 199.903 9.489a3.992 3.992 0 0 1-5.808 1.886l-45.404-28.104C119.225-34.969 82.396-8.21 90.637 25.45l12.699 51.865a3.993 3.993 0 0 1-3.59 4.941l-53.251 3.951c-34.554 2.562-48.632 45.855-22.174 68.247L65.08 188.95a3.992 3.992 0 0 1 0 6.106l-40.76 34.497c-26.45 22.384-12.39 65.682 22.174 68.246l53.251 3.951a3.993 3.993 0 0 1 3.59 4.941l-12.698 51.866c-8.239 33.656 28.581 60.42 58.054 42.179l45.403-28.104a3.993 3.993 0 0 1 5.808 1.887l20.213 49.425c13.116 32.071 58.638 32.081 71.758 0l20.212-49.424a3.994 3.994 0 0 1 5.809-1.887l45.403 28.104c29.464 18.236 66.297-8.513 58.054-42.179l-12.699-51.865a3.995 3.995 0 0 1 3.59-4.941l53.251-3.951c34.553-2.563 48.633-45.854 22.175-68.246l-40.76-34.497a3.993 3.993 0 0 1 0-6.107l40.76-34.496c26.511-22.441 12.322-65.689-22.175-68.247l-53.251-3.951a3.993 3.993 0 0 1-3.589-4.942l12.698-51.864c8.241-33.658-28.583-60.421-58.054-42.18l-45.403 28.104a3.994 3.994 0 0 1-5.809-1.887l-20.212-49.424c-13.159-32.178-58.675-31.993-71.757 0m16.814 64.568 19.064-46.616 19.064 46.615c10.308 25.2 40.778 35.066 63.892 20.759l42.822-26.507-11.976 48.919c-6.475 26.444 12.38 52.339 39.487 54.349l50.226 3.726-38.444 32.536c-20.782 17.591-20.747 49.621.001 67.18l38.442 32.536-50.225 3.727c-27.151 2.015-45.95 27.948-39.488 54.349l11.978 48.919-42.823-26.507c-23.151-14.327-53.603-4.4-63.892 20.76l-19.064 46.615-19.064-46.617c-10.305-25.198-40.778-35.066-63.891-20.76l-42.823 26.508 11.977-48.918c6.474-26.446-12.381-52.338-39.488-54.35l-50.224-3.726 38.443-32.537c20.782-17.588 20.747-49.619 0-67.178L52.48 125.877l50.226-3.726c27.151-2.014 45.95-27.947 39.487-54.349l-11.977-48.919 42.823 26.507c23.188 14.355 53.622 4.352 63.891-20.758M256 64c-70.58 0-128 57.421-128 128s57.42 128 128 128c70.579 0 128-57.42 128-128 0-70.579-57.421-128-128-128m0 208c-44.112 0-80-35.888-80-80s35.888-80 80-80 80 35.888 80 80-35.888 80-80 80"/><glyph glyph-name="thumbs-down" unicode="" horiz-adv-x="512" d="M466.27 222.69c4.674 22.647.864 44.538-8.99 62.99 2.958 23.868-4.021 48.565-17.34 66.99C438.986 408.577 404.117 448 327 448c-7 0-15-.01-22.22-.01C201.195 447.99 168.997 408 128 408h-10.845c-5.64 4.975-13.042 8-21.155 8H32c-17.673 0-32-14.327-32-32V144c0-17.673 14.327-32 32-32h64c11.842 0 22.175 6.438 27.708 16h7.052c19.146-16.953 46.013-60.653 68.76-83.4C213.187 30.933 209.673-64 271.28-64c57.58 0 95.27 31.936 95.27 104.73 0 18.41-3.93 33.73-8.85 46.54h36.48c48.602 0 85.82 41.565 85.82 85.58 0 19.15-4.96 34.99-13.73 49.84M64 152c-13.255 0-24 10.745-24 24s10.745 24 24 24 24-10.745 24-24-10.745-24-24-24m330.18-16.73H290.19c0-37.82 28.36-55.37 28.36-94.54 0-23.75 0-56.73-47.27-56.73-18.91 18.91-9.46 66.18-37.82 94.54C206.9 105.11 167.28 176 138.92 176H128v186.17c53.611 0 100.001 37.82 171.64 37.82h37.82c35.512 0 60.82-17.12 53.12-65.9 15.2-8.16 26.5-36.44 13.94-57.57 21.581-20.384 18.699-51.065 5.21-65.62 9.45 0 22.36-18.91 22.27-37.81-.09-18.91-16.71-37.82-37.82-37.82"/><glyph glyph-name="thumbs-up" unicode="" horiz-adv-x="512" d="M466.27 161.31C475.04 176.16 480 192 480 211.15c0 44.015-37.218 85.58-85.82 85.58H357.7c4.92 12.81 8.85 28.13 8.85 46.54 0 72.794-37.69 104.73-95.27 104.73-61.607 0-58.093-94.933-71.76-108.6-22.747-22.747-49.615-66.447-68.76-83.4H32c-17.673 0-32-14.327-32-32V-16c0-17.673 14.327-32 32-32h64c14.893 0 27.408 10.174 30.978 23.95 44.509-1.001 75.06-39.94 177.802-39.94C312-63.99 320-64 327-64c77.117 0 111.986 39.423 112.94 95.33 13.319 18.425 20.299 43.122 17.34 66.99 9.854 18.452 13.664 40.343 8.99 62.99m-61.75-53.83c12.56-21.13 1.26-49.41-13.94-57.57 7.7-48.78-17.608-65.9-53.12-65.9h-37.82c-71.639 0-118.029 37.82-171.64 37.82V208h10.92c28.36 0 67.98 70.89 94.54 97.46 28.36 28.36 18.91 75.63 37.82 94.54 47.27 0 47.27-32.98 47.27-56.73 0-39.17-28.36-56.72-28.36-94.54h103.99c21.11 0 37.73-18.91 37.82-37.82.09-18.9-12.82-37.81-22.27-37.81 13.489-14.555 16.371-45.236-5.21-65.62M88 16C88 2.745 77.255-8 64-8S40 2.745 40 16s10.745 24 24 24 24-10.745 24-24"/><glyph glyph-name="times-circle" unicode="" horiz-adv-x="512" d="M256 440C119 440 8 329 8 192S119-56 256-56 504 55 504 192 393 440 256 440m0-448C145.5-8 56 81.5 56 192s89.5 200 200 200 200-89.5 200-200S366.5-8 256-8m101.8 262.2L295.6 192l62.2-62.2c4.7-4.7 4.7-12.3 0-17l-22.6-22.6c-4.7-4.7-12.3-4.7-17 0L256 152.4l-62.2-62.2c-4.7-4.7-12.3-4.7-17 0l-22.6 22.6c-4.7 4.7-4.7 12.3 0 17l62.2 62.2-62.2 62.2c-4.7 4.7-4.7 12.3 0 17l22.6 22.6c4.7 4.7 12.3 4.7 17 0l62.2-62.2 62.2 62.2c4.7 4.7 12.3 4.7 17 0l22.6-22.6c4.7-4.7 4.7-12.3 0-17"/><glyph glyph-name="trash-alt" unicode="" horiz-adv-x="448" d="M192 260V44c0-6.627-5.373-12-12-12h-24c-6.627 0-12 5.373-12 12v216c0 6.627 5.373 12 12 12h24c6.627 0 12-5.373 12-12m100 12h-24c-6.627 0-12-5.373-12-12V44c0-6.627 5.373-12 12-12h24c6.627 0 12 5.373 12 12v216c0 6.627-5.373 12-12 12m132 96c13.255 0 24-10.745 24-24v-12c0-6.627-5.373-12-12-12h-20V-16c0-26.51-21.49-48-48-48H80c-26.51 0-48 21.49-48 48v336H12c-6.627 0-12 5.373-12 12v12c0 13.255 10.745 24 24 24h74.411l34.018 56.696A48 48 0 0 0 173.589 448h100.823a48 48 0 0 0 41.16-23.304L349.589 368zm-269.611 0h139.223l-17.452 29.087a6 6 0 0 1-5.145 2.913h-94.028a6 6 0 0 1-5.145-2.913zM368 320H80V-10a6 6 0 0 1 6-6h276a6 6 0 0 1 6 6z"/><glyph glyph-name="user-circle" unicode="" horiz-adv-x="512" d="M256 440C119.033 440 8 328.967 8 192S119.033-56 256-56 504 55.033 504 192 392.967 440 256 440m0-48c110.457 0 200-89.543 200-200 0-36.982-10.049-71.611-27.548-101.328-7.072 25.444-25.663 54.208-63.93 65.374C377.207 176.218 384 199.586 384 224c0 70.689-57.189 128-128 128-70.689 0-128-57.19-128-128 0-24.414 6.793-47.783 19.478-67.954-38.299-11.175-56.876-39.913-63.938-65.362C66.046 120.399 56 155.024 56 192c0 110.457 89.543 200 200 200m80-168c0-44.183-35.817-80-80-80s-80 35.817-80 80 35.817 80 80 80 80-35.817 80-80M128 38.331v27.758c0 20.41 13.53 38.348 33.156 43.955l24.476 6.993C206.342 103.352 230.605 96 256 96s49.658 7.352 70.369 21.038l24.476-6.993C370.47 104.437 384 86.5 384 66.089V38.331C349.315 9.408 304.693-8 256-8S162.685 9.408 128 38.331"/><glyph glyph-name="user" unicode="" horiz-adv-x="512" d="M423.309 156.975 402.221 163C431.798 204.11 436 245.706 436 268c0 99.351-80.516 180-180 180-99.351 0-180-80.516-180-180 0-22.299 4.198-63.884 33.779-105l-21.088-6.025C21.28 137.715 0 76.41 0 39.395V13.714C0-29.138 34.862-64 77.714-64h356.571C477.138-64 512-29.138 512 13.714v25.681c0 36.247-20.725 98.161-88.691 117.58M256 400c72.902 0 132-59.099 132-132s-59.098-132-132-132-132 59.099-132 132 59.098 132 132 132M464 13.714C464-2.696 450.696-16 434.286-16H77.714C61.304-16 48-2.696 48 13.714v25.681c0 33.167 21.987 62.316 53.878 71.427l46.103 13.172C162.683 112.942 200.427 88 256 88s93.317 24.942 108.019 35.994l46.103-13.172C442.013 101.71 464 72.562 464 39.395z"/><glyph glyph-name="window-close" unicode="" horiz-adv-x="512" d="M464 416H48c-26.5 0-48-21.5-48-48V16c0-26.5 21.5-48 48-48h416c26.5 0 48 21.5 48 48v352c0 26.5-21.5 48-48 48m0-394c0-3.3-2.7-6-6-6H54c-3.3 0-6 2.7-6 6v340c0 3.3 2.7 6 6 6h404c3.3 0 6-2.7 6-6zM356.5 253.4 295.1 192l61.4-61.4c4.6-4.6 4.6-12.1 0-16.8l-22.3-22.3c-4.6-4.6-12.1-4.6-16.8 0L256 152.9l-61.4-61.4c-4.6-4.6-12.1-4.6-16.8 0l-22.3 22.3c-4.6 4.6-4.6 12.1 0 16.8l61.4 61.4-61.4 61.4c-4.6 4.6-4.6 12.1 0 16.8l22.3 22.3c4.6 4.6 12.1 4.6 16.8 0l61.4-61.4 61.4 61.4c4.6 4.6 12.1 4.6 16.8 0l22.3-22.3c4.7-4.6 4.7-12.1 0-16.8"/><glyph glyph-name="window-maximize" unicode="" horiz-adv-x="512" d="M464 416H48c-26.5 0-48-21.5-48-48V16c0-26.5 21.5-48 48-48h416c26.5 0 48 21.5 48 48v352c0 26.5-21.5 48-48 48m0-394c0-3.3-2.7-6-6-6H54c-3.3 0-6 2.7-6 6v234h416z"/><glyph glyph-name="window-minimize" unicode="" horiz-adv-x="512" d="M480-32H32C14.3-32 0-17.7 0 0s14.3 32 32 32h448c17.7 0 32-14.3 32-32s-14.3-32-32-32"/><glyph glyph-name="window-restore" unicode="" horiz-adv-x="512" d="M464 448H144c-26.5 0-48-21.5-48-48v-48H48c-26.5 0-48-21.5-48-48V-16c0-26.5 21.5-48 48-48h320c26.5 0 48 21.5 48 48v48h48c26.5 0 48 21.5 48 48v320c0 26.5-21.5 48-48 48M368-16H48v208h320zm96 96h-48v224c0 26.5-21.5 48-48 48H144v48h320z"/></font>
</defs>
</svg>
